《空罐少女主题曲》(AKIKAN!)[ED Single-恋空リサイクリング][のみこ][附10BK][APE]

《空罐少女主题曲》(AKIKAN!)[ED Single-恋空リサイクリング][のみこ][附10BK][APE]
  • 片  名  《空罐少女主题曲》(AKIKAN!)[ED Single-恋空リサイクリング][のみこ][附10BK][APE]
  • 简  介  发行时间: 2009年03月25日对白语言: 日语文字语言: 日文
  • 类  别  动漫
  • 小  类  动漫周边


  • 详细介绍中文名: 空罐少女主题曲英文名: AKIKAN!别名: アキカン!资源格式: APE版本: [ED Single-恋空リサイクリング][のみこ][附10BK]发行时间: 2009年03月25日地区: 日本对白语言: 日语文字语言: 日文简介: 【簡介】
    初吻有如哈密瓜汽水的味道?!某天,大地翔正想喝个罐装饮料时,面前忽然出现一位女孩子!而且翔还成为这位任性妄为的哈密瓜汽水的「空罐」‧哈密瓜的持有者,然而翔的青梅竹马奈染弥看到开始上学的哈密瓜,内心有著复杂的心情。另外「空罐」间的战斗「空罐选拔赛」紧接著展开!反观不想战斗的翔,哈密瓜可是战意高涨、热情满罐!空前绝饮、烦恼净空的恋爱喜剧就此开封!
    【介紹】
    TVアニメ「アキカン!」エンディングテーマ: 恋空リサイクリング/ のみこ* 商品番号: LACM-4561
    * メディア: マキシシングルCD
    * 組枚数: 1
    * 発売日: 2009/03/25
    * 価格: 1200円(税込)
    * 内容
    TVアニメ「アキカン!」のエンディングテーマ! つねにチャレンジ精神で楽曲に挑む のみこ の今回のチャレンジは、前代未聞の12番まである楽曲! あなたは12番まで辿りつけるか?
    【Artist/Cast】
    のみこ (アーティスト) Little Non (アーティスト) 
    ちゃーみー■くいーん (アーティスト) 初音ミク (アーティスト)
    【曲目】
    1. 恋空リサイクリング のみこ featuring メロンソーダ
    2. 恋空リサイクリング のみこ featuring 粒入りグレープジュース
    3. 恋空リサイクリング のみこ featuring ジンジャーエール(ドライ)
    4. 恋空リサイクリング のみこ featuring 烏龍茶(特級)
    5. 恋空リサイクリング のみこ featuring 日本茶(煎茶)
    6. 恋空リサイクリング のみこ with k.moriy featuring コーラ!
    7. 恋空リサイクリング のみこ with Little Non featuring エナジードリンク
    8. 恋空リサイクリング のみこ featuring おでん缶
    9. 恋空リサイクリング のみこ with ちゃーみー■くいーん featuring ピーチ■ネクター
    10. 恋空リサイクリング のみこ featuring Afternoon紅茶
    11. 恋空リサイクリング のみこ featuring コーヒー(ブラック,無糖)
    12. 恋空リサイクリング のみこ featuring お汁粉
    13. 恋空リサイクリング のみこ feat.初音ミク featuring みっくちゅじゅーちゅ
  • 《空罐少女主题曲》(AKIKAN!)[ED Single-恋空リサイクリング][のみこ][附10BK][APE]_large

精选评论

沙发归我

空罐的情节也进入高潮了~~

谢谢xeyu sama!
没看过动画 如果音乐不错的话 就去看
7来了终于都7来了这ED~

PS:
偶还在Share上拖,怎么语大就发布了啊~=_=b
支持楼主,辛苦啦~~~~~
= =居然還有miku版的...
天啊,终于来了,我哭啊……LZ乃真神也!
制作公司居然不公布整曲!

只是ED的一段!~

泪奔啊!!!!
谢谢楼主 终于都出来了 这张ED
呵呵,唔知算不算越权呢。

PERFORMER "のみこ"
TITLE "恋空リサイクリング"
CATALOG 4540774405619
FILE "CDImage.ape" WAVE
TRACK 01 AUDIO
TITLE "恋空リサイクリング のみこ featuring メロンソーダ"
PERFORMER "のみこ"
ISRC JPI100900420
INDEX 01 00:00:00
TRACK 02 AUDIO
TITLE "恋空リサイクリング のみこ featuring 粒入りグレープジュース"
PERFORMER "のみこ"
ISRC JPI100900421
INDEX 00 01:29:62
INDEX 01 01:32:32
TRACK 03 AUDIO
TITLE "恋空リサイクリング のみこ featuring ジンジャーエール(ドライ)"
PERFORMER "のみこ"
ISRC JPI100900422
INDEX 00 03:02:23
INDEX 01 03:04:68
TRACK 04 AUDIO
TITLE "恋空リサイクリング のみこ featuring 烏龍茶(特級)"
PERFORMER "のみこ"
ISRC JPI100900423
INDEX 00 04:34:73
INDEX 01 04:37:43
TRACK 05 AUDIO
TITLE "恋空リサイクリング のみこ featuring 日本茶(煎茶)"
PERFORMER "のみこ"
ISRC JPI100900424
INDEX 00 06:07:58
INDEX 01 06:10:28
TRACK 06 AUDIO
TITLE "恋空リサイクリング のみこ with k.moriy featuring コーラ!"
PERFORMER "のみこ"
ISRC JPI100900425
INDEX 00 07:40:43
INDEX 01 07:43:13
TRACK 07 AUDIO
TITLE "恋空リサイクリング のみこ with Little Non featuring エナジードリンク"
PERFORMER "のみこ"
ISRC JPI100900426
INDEX 00 09:13:05
INDEX 01 09:15:50
TRACK 08 AUDIO
TITLE "恋空リサイクリング のみこ featuring おでん缶"
PERFORMER "のみこ"
ISRC JPI100900427
INDEX 00 10:45:63
INDEX 01 10:48:33
TRACK 09 AUDIO
TITLE "恋空リサイクリング のみこ with ちゃーみー·くいーん featuring ピーチ·ネクター"
PERFORMER "のみこ"
ISRC JPI100900428
INDEX 00 12:18:38
INDEX 01 12:21:08
TRACK 10 AUDIO
TITLE "恋空リサイクリング のみこ featuring Afternoon紅茶"
PERFORMER "のみこ"
ISRC JPI100900429
INDEX 00 13:51:15
INDEX 01 13:53:60
TRACK 11 AUDIO
TITLE "恋空リサイクリング のみこ featuring コーヒー(ブラック,無糖)"
PERFORMER "のみこ"
ISRC JPI100900430
INDEX 00 15:23:68
INDEX 01 15:26:38
TRACK 12 AUDIO
TITLE "恋空リサイクリング のみこ featuring お汁粉"
PERFORMER "のみこ"
ISRC JPI100900431
INDEX 00 16:56:48
INDEX 01 16:59:18
TRACK 13 AUDIO
TITLE "恋空リサイクリング のみこ feat.初音ミク featuring みっくちゅじゅーちゅ"
PERFORMER "のみこ"
ISRC JPI100900432
INDEX 00 18:29:20
INDEX 01 18:31:65
ED终于出了...
......一歌多唱的神物~~~我的最爱......果然还是烏龍茶啊~~ - -
乌龙茶 到底在说 什么 好像听懂了 但是还是不知道她在说什么
终于。。终于出了!!!
在下期盼已久,这曲子写的不错的说