《明日的与一主题曲》(Asu no Yoichi!)[ED Single - Life and proud][美郷あき][附BK][TTA+MP3(320Kbps)]

《明日的与一主题曲》(Asu no Yoichi!)[ED Single - Life and proud][美郷あき][附BK][TTA+MP3(320Kbps)]
  • 片  名  《明日的与一主题曲》(Asu no Yoichi!)[ED Single - Life and proud][美郷あき][附BK][TTA+MP3(320Kbps)]
  • 简  介  发行时间: 2009年02月04日对白语言: 日语文字语言: 日文
  • 类  别  动漫
  • 小  类  动漫周边


  • 详细介绍简介: 【动画介绍】
    故事主人公是与父亲两人在山上修行的少年剑士鸟丸与一。有一天,父亲忽然对他说:“就这样下去的话,你不可能变得更强大!”,并让他去新天地接受新的挑战。于是他决意来到都市来进行全新的修行生活。初来都市的土包子与一,和同为浮羽神风流派的斑鸠道场的可爱大小姐斑鸠伊吹相识,并开始了与四位美人姐妹同一屋檐下的生活...
    【单曲介绍】
    TVアニメ『明日のよいち!』ED主題歌: Life and proud
    美郷あき 商品番号: LHCM-1051
    メディア: マキシシングルCD
    組枚数: 1
    発売日: 2009/02/04
    価格: 1200円(税込)
    内容
    美郷あき Mellow Headでシングル初登場!! 待望の新曲はTVアニメ『明日のよいち!』エンディングテーマ。爽やかで力強いメロディの中にどこか切なさを感じる楽曲は美郷あきの歌声の魅力を引き出しているお勧めの1枚!! ボーカル曲2曲+カラオケ入り。
    【Artist Cast】
    藤末樹 (作曲者) 畑亜貴 (作詞者) 
    美郷あき (アーティスト) 菊谷知樹 (編曲者) 
    【收录曲目】
    1. Life and proud
    2. 波の階段
    3. Life and proud(off vocal)
    4. 波の階段(off vocal)
  • 《明日的与一主题曲》(Asu no Yoichi!)[ED Single - Life and proud][美郷あき][附BK][TTA+MP3(320Kbps)]_large

精选评论

谢谢lz无私发布~

沙发吖~
先下了听听看
谢谢楼主分享,继续加油
谢谢分享,关注……
没有资源的说,一上午了,才0.8%
还算是挺好听的~~
不错啦。相当温馨的调调。比较切合动画。
这姐姐 长得很好!~看着舒服
喜欢
下来听听看
明日的与一主题曲
Asu no Yoichi!
明日のよいち!
感谢楼主的发布~
看到美女就进来了
PERFORMER "旤嫿偁偒"
TITLE "Life and proud"
FILE "LHCM-1051.tta" WAVE
TRACK 01 AUDIO
TITLE "Life and proud"
PERFORMER "旤嫿偁偒"
ISRC JPI100900062
INDEX 01 00:00:00
TRACK 02 AUDIO
TITLE "攇偺奒抜(off vocal)"
PERFORMER "旤嫿偁偒"
ISRC JPI100900063
INDEX 00 04:22:07
INDEX 01 04:25:55
TRACK 03 AUDIO
TITLE "Life and proud(off vocal)"
PERFORMER "旤嫿偁偒"
ISRC JPI100900064
INDEX 00 08:22:27
INDEX 01 08:27:01
TRACK 04 AUDIO
TITLE "攇偺奒抜(off vocal)"
PERFORMER "旤嫿偁偒"
ISRC JPI100900065
INDEX 00 12:48:33
INDEX 01 12:52:06

忙LZ给翻译下,谢谢!实在看不懂
PERFORMER "美郷あき"
TITLE "Life and proud"
FILE "LHCM-1051.tta" WAVE
TRACK 01 AUDIO
TITLE "Life and proud"
PERFORMER "美郷あき"
ISRC JPI100900062
INDEX 01 00:00:00
TRACK 02 AUDIO
TITLE "波の階段(off vocal)"
PERFORMER "美郷あき"
ISRC JPI100900063
INDEX 00 04:22:07
INDEX 01 04:25:55
TRACK 03 AUDIO
TITLE "Life and proud(off vocal)"
PERFORMER "美郷あき"
ISRC JPI100900064
INDEX 00 08:22:27
INDEX 01 08:27:01
TRACK 04 AUDIO
TITLE "波の階段(off vocal)"
PERFORMER "美郷あき"
ISRC JPI100900065
INDEX 00 12:48:33
INDEX 01 12:52:06