志强 -《勿忘我》[APE]

志强 -《勿忘我》[APE]
  • 片  名  志强 -《勿忘我》[APE]
  • 简  介  音乐风格: 流行发行时间: 2005年04月29日地区: 大陆语言: 普通话
  • 类  别  音乐
  • 小  类  华语音乐


  • 详细介绍专辑中文名: 勿忘我歌手: 志强音乐风格: 流行资源格式: APE发行时间: 2005年04月29日地区: 大陆语言: 普通话简介: 专辑介绍:
    意外惊喜
    得奖无数的歌者,拥有一把无可匹敌的超凡靓嗓,
    而这又是公司又一重头之作,无论是精彩的编曲,
    还是极为严谨的录音,都透出这一诚意,
    而歌者那磁性感人的美声,更让人缠绵转侧,乐而忘返,
    配器也绝对上乘,那高、低频的空间感,
    音场与像真度表现完美无瑕,可谓浪漫感人至极,
    触动心弦至深。
    本人小水管做源,上传30-50KB左右,很辛苦,请下载完的朋友不要移动或改变文件文件位置,帮助分流下,在此表示感谢!!
  • 志强 -《勿忘我》[APE]_large

精选评论

Exact Audio Copy V0.99 prebeta 4 from 23. January 2008

EAC 抓取日志文件从19. 五月 2009, 21:07

未知艺术家 / 未知标题

使用驱动器 :KS0396U PGF617U Adapter: 5 ID: 0

读取模式 : 保护
使用精确流 : 是
废除音频缓冲 : 是
使用 C2 指针 : 否

读取偏移校正 : 0
读取 Lead-In 和 Lead-Out : 否
用静音填充抓取中丢失偏移的采样 : 是
去除首尾静音块 : 否
在 CRC 计算中使用了空样本 : 否
已用接口 : Win NT 及 2000 本地 Win32 接口

所用输出格式 : 内部 WAV 函数
样本格式 : 44.100 Hz;16 Bit;立体声


被抓轨 CD 的 TOC

音轨 | 开始 | 长度 | 起始扇区 | 结尾扇区
--------------------------------------------------
1 | 0:00.00 | 4:24.58 | 0 | 19857
2 | 4:24.58 | 5:10.56 | 19858 | 43163
3 | 9:35.39 | 4:57.20 | 43164 | 65458
4 | 14:32.59 | 4:56.24 | 65459 | 87682
5 | 19:29.08 | 4:09.63 | 87683 | 106420
6 | 23:38.71 | 5:00.28 | 106421 | 128948
7 | 28:39.24 | 5:30.48 | 128949 | 153746
8 | 34:09.72 | 4:20.14 | 153747 | 173260
9 | 38:30.11 | 4:26.56 | 173261 | 193266
10 | 42:56.67 | 3:58.59 | 193267 | 211175
11 | 46:55.51 | 3:25.00 | 211176 | 226550
12 | 50:20.51 | 3:17.53 | 226551 | 241378
13 | 53:38.29 | 4:47.39 | 241379 | 262942


范围状态及错误

已选择范围

文件名 L:上传资源未知艺术家 - 未知标题.wav

峰值电平 100.0 %
范围质量 100.0 %
复制 CRC 594BAB83
复制成功

没有错误发生

状态报告结尾
怎么感觉好土啊?不过辛苦楼主了
楼主辛苦啦
志强是谁?迟志强?
土也许是有实力,先下来听听,谢谢分享
先顶楼主的辛苦供源。但该专辑的歌曲原唱好像全是女歌手,男歌手翻唱?我担心驴载试听后感觉不爽,还是闪吧。
这个歌手是谁?
多谢楼主的供源,辛苦了!
迟志强?
下来听听
楼主没有源耶,我下了10天,还是70%,楼主辛苦了,请放源。