John Adorney -《The Other Shore》mp3/ape[MP3!]

John Adorney -《The Other Shore》mp3/ape[MP3!]
  • 片  名  John Adorney -《The Other Shore》mp3/ape[MP3!]
  • 简  介  发行时间: 2001年08月07日
  • 类  别  音乐
  • 小  类  古典音乐


  • 详细介绍专辑中文名: The Other Shore艺术家: John Adorney资源格式: MP3版本: mp3/ape发行时间: 2001年08月07日地区: 美国语言: 英语简介:
    专辑介绍:
    John Adorney 除运用大量管弦类的原音乐器外,还加强最能引发情感共鸣的人声,以及发自人类原始天性的民族元素,希望能使乐曲更贴近人心。
    11首的曲子,让人完全沉醉其间,跟随其精心设计的情绪转折,使心灵历经放松、舒展、引导、镇定、欢愉、和谐等过程,让紧张与压力瞬间化为无形。
    Copy 一些亚马逊的评论:
    Reviewer: A music fan (Los Angeles, California United States)
    John Adorney s music is beautiful. It might sound corny, but I feel as though each of his songs is like a love song or a prayer. In addition to the wonderful moods he creates, I am also taken with the way he moves back and forth between different rythms and ethnic influences. Just a great album overall.
    Reviewer: David Grahame (Fayetteville, AR United States)
    This is now one of my favorite New Age albums of all time. I have been listening to it for weeks and I m still not tired of it. The songs are quite varied in style - from Celtic ballad to infectious exotic rhythms - but they are all rich, melodious, and create a great sense of freshness and JOY. The performances and sound are clean, clear and exhilarating.
    My only criticism could be that the occasional simple, repetitive lyrics - although beautifully sung - can become tedious long before the music does. When the flower meets the rain, when the flower feels the sun is a good case in point.
    From this album alone, I would say that John Adorney is one of the most talented all-around musical artists working today.
    PS: 此专辑是由APE格式转换过来的,所以没有单独一首一首分割开来,而是一个整体mp3文件,大家如果需要APE格式的可以下载完后还原到APE格式的
  • John Adorney -《The Other Shore》mp3/ape[MP3!]_large

精选评论

有CUE文件吗/?
为什么这么好的东西,没人顶一下?沙发第一次
郁闷,mp3都是整轨的
我也不会转换
PERFORMER "John Adorney"
TITLE "The Other Shore"
FILE "The Other Shore.mp3" WAVE
TRACK 01 AUDIO
TITLE "Free"
PERFORMER "John Adorney"
INDEX 01 00:00:00
TRACK 02 AUDIO
TITLE "The Other Shore"
PERFORMER "John Adorney"
INDEX 01 05:14:40
TRACK 03 AUDIO
TITLE "The Crossing"
PERFORMER "John Adorney"
INDEX 01 11:27:32
TRACK 04 AUDIO
TITLE "When The Flower Meets The Rain"
PERFORMER "John Adorney"
INDEX 01 17:11:65
TRACK 05 AUDIO
TITLE "As My Heart Desires"
PERFORMER "John Adorney"
INDEX 01 22:56:00
TRACK 06 AUDIO
TITLE "Kulan Tai Ulam (Heart Of A Child)"
PERFORMER "John Adorney"
INDEX 01 25:55:30
TRACK 07 AUDIO
TITLE "Thinking Of You"
PERFORMER "John Adorney"
INDEX 01 31:01:12
TRACK 08 AUDIO
TITLE "Moonbird"
PERFORMER "John Adorney"
INDEX 01 35:35:17
TRACK 09 AUDIO
TITLE "Awakening"
PERFORMER "John Adorney"
INDEX 01 40:30:02
TRACK 10 AUDIO
TITLE "All In A Moment"
PERFORMER "John Adorney"
INDEX 01 46:00:02
TRACK 11 AUDIO
TITLE "Entranced"
PERFORMER "John Adorney"
INDEX 01 51:08:02

………………………………………………………………………………
將此文件放到記事本另存為The Other Shore.cue
然後將原Mp3文件改為The Other Shore.mp3
放到同一目錄即可播放
特別說明:Cue索引文件為本人編輯,不同於APE源壓縮包裡Cue索引文件
好好学习,天天向上
慢慢等待中!!!!!