永邦 -《愿望》[FLAC]

永邦 -《愿望》[FLAC]
  • 片  名  永邦 -《愿望》[FLAC]
  • 简  介  Douban1306921:6.7(808 votes)音乐风格: 流行发行时间: 2007年地区: 台湾语言: 普通话
  • 类  别  音乐
  • 小  类  华语音乐


  • 详细介绍专辑中文名: 愿望歌手: 永邦音乐风格: 流行资源格式: FLAC发行时间: 2007年地区: 台湾语言: 普通话简介: 专辑介绍:
    记得我们的愿望吗?如果真能有愿望,如果真能实现,你会想许下什么心愿呢?永邦——一个多么熟悉的名字,虽然他隐退了三年,但是关于他在流行乐坛创造的神话,他的那些代表作,一直没有被人们忘记!三年来,一次又一次地被人们唱响,唤醒起那些久远的回忆,温暖了那些不再有过的悸动!
    听声音,还是那个“情歌模范声”!说情歌,还是那个“情歌最佳代言人”!数感动,还是那个“催泪情歌王”!永邦,这个被冠以无数封号和光环的乐坛“音乐优声学”,在离开了我们三年之后,又重新回来了,全力整装出发,只是这一次,他显得更成熟,也内敛了许多,在他的整张《愿望》专辑,你可以听得出来!特别是主打歌《爱的比较多》更加显出了他的多元化!
    永邦虽然是一位集歌手、词曲编创作者、制作人为一身的全能人才,但为了增加这张专辑的“姿色”,本张专辑邀请了编曲界享有“编曲圣手”的著名编曲人Martin Tang来为其主打歌《爱的比较多》操刀编曲,为歌曲注入了更有灵性的活力!在圈内,说起MartinTang,已经没有人不知道了,张惠妹的《给我感觉》、孙燕姿的《我要的幸福》、蔡依林的《你怎么连话都说不清楚》和《感觉你的存在》、陈慧琳的《三秒钟》、苏永康的《十分钟后离开你》、范玮琪的《范范之辈》、张靓颖的《身体语言》等等这些令人耳熟能详的歌曲的编曲都是出自他之手,相信《爱的比较多》有了Martin Tang的编曲来保驾护航,更能让歌迷接受、听众喜爱!而《神奇》和《破局》也力邀被称为编曲怪杰、周杰伦作品的御用编曲师、台湾著名音乐制作人钟兴民为其全力编曲,钟兴民为很多著名歌手编过曲,他的作品流传甚广,早已超越许多国际知名的音乐家,从流行音乐跨界,甚至影响全亚洲的音乐文化,不仅带动了流行趋势、他前卫革新的眼光与作为,一直走在最前端引领着许多音乐人不断前进!
    三年的修整,三年的磨砺,三年的沉思,让永邦变得成熟和内敛,得以让这张《愿望》专辑犹如他本人一样,更大气却平易近人!更质朴却不失优雅!更深情却不矫揉!
    超极小管道,所以速度非常有限,如果你是下完就撤源的就暂时不要下载先收藏回头再来,让下完可以一起继续供源的朋友先下,加入反吸血保护.
  • 永邦 -《愿望》[FLAC]_large

精选评论



欢迎所有喜欢iTunes Plus AAC的朋友加群:38854284分享交流!
跪求 永邦《魔鬼的眼泪》无损!
感谢分享
Thx share
喜欢,谢谢
找不到脸上熟悉的微笑
留名收藏了 感谢无私奉献
收藏了,谢谢LZ
好像刘烨。。。
话说侧面真的很像刘烨
78.5% 没源了
电脑在运输途中,过几天开源
REM DISCID 810AB50A
REM COMMENT "ExactAudioCopy v0.99pb5"
PERFORMER "永邦"
TITLE "愿望"
FILE "永邦.-.[愿望].专辑.(FLAC).flac" WAVE
TRACK 01 AUDIO
TITLE "神奇"
PERFORMER "永邦"
INDEX 01 00:00:00
TRACK 02 AUDIO
TITLE "你的模样"
PERFORMER "永邦"
FLAGS DCP
INDEX 01 06:00:13
TRACK 03 AUDIO
TITLE "男人"
PERFORMER "永邦"
FLAGS DCP
INDEX 01 09:22:46
TRACK 04 AUDIO
TITLE "爱的比较多"
PERFORMER "永邦"
FLAGS DCP
INDEX 01 13:52:19
TRACK 05 AUDIO
TITLE "ㄧ天"
PERFORMER "永邦"
FLAGS DCP
INDEX 00 18:54:61
INDEX 01 18:54:62
TRACK 06 AUDIO
TITLE "冷处理"
PERFORMER "永邦"
FLAGS DCP
INDEX 01 24:03:05
TRACK 07 AUDIO
TITLE "破局"
PERFORMER "永邦"
FLAGS DCP
INDEX 01 29:14:16
TRACK 08 AUDIO
TITLE "愿望"
PERFORMER "永邦"
FLAGS DCP
INDEX 01 33:50:45
TRACK 09 AUDIO
TITLE "虚拟世界"
PERFORMER "永邦"
FLAGS DCP
INDEX 01 37:45:34
TRACK 10 AUDIO
TITLE "你还是我最深爱的人 "
PERFORMER "永邦"
FLAGS DCP
INDEX 01 42:07:73