神秘园(纯音乐) -《Songs From A Secret Garden》专辑[MP3!]

神秘园(纯音乐) -《Songs From A Secret Garden》专辑[MP3!]
  • 片  名  神秘园(纯音乐) -《Songs From A Secret Garden》专辑[MP3!]
  • 简  介  无
  • 类  别  音乐
  • 小  类  华语音乐


  • 详细介绍简介: 专辑名称: 神秘园 Songs From A Secret Garden
    演唱歌手: 纯音乐
    专辑类别: 外语音乐1CD
    发行公司: 宝丽金唱片
    出版年月: 1996年4月
    专辑介绍:
    这张专辑风格比较统一,乐曲舒缓柔美,充满了思忆,不经意之间流露出些许的忧愁,令人不得不沉醉于其中。其中的《田园》(Nocturne)一曲是乐队的成名作,曾获95年欧洲歌唱大赛冠军。《来自神秘园的歌》 (Song From A Secret Garden)在组建乐队前就在挪威发表并流行。
    评论:SECRET GARDEN第一张专集的伤感能杀死人,让人象迷失在神秘的丛林里,黑暗的看不到天,找不到出口,沉溺在这样的黑暗中,象一个人孤独的坐在路边大树的阴影下,静静看路上人来人往,别人看不到你你也不想被看到,因为你害怕,因为你孤独,你知道这不是什么好事,但只有这样,受伤的心才能感到一丝安全,这样的孤独一直在诱惑你...
    专辑曲目:
    01. Nocturne
    02. Pastorale
    03. Songs From A Secret Garden
    04. Sigma
    05. Papillon
    06. Serenade To Spring
    07. Atlantia
    08. Heartstrings
    09. Adagio
    10. The Rap
    11. Chaconne
    12. Cantoluna
    13. Ode To Simplicity
  • 神秘园(纯音乐) -《Songs From A Secret Garden》专辑[MP3!]_large

精选评论

找了很久,谢谢啦!
好听
天籁之声,期待着今年五月的上海演出
太棒了.....
很有意境
偶滴大爱!从上高中时就喜欢!
和楼上有同感,永恒的经典
这是韩国人的源,是XRCD2版本的,所以音质超好!!!

听说不错,顶一下
8楼cue文件的内容在楼下
PERFORMER "Secret Garden"
TITLE "Songs From A Secret Garden"
FILE "Songs From A Secret Garden XRCD2.ape" WAVE
TRACK 01 AUDIO
TITLE "Nocturne"
PERFORMER "Secret Garden"
INDEX 01 00:00:00
TRACK 02 AUDIO
TITLE "Pastorale"
PERFORMER "Secret Garden"
INDEX 00 03:12:01
INDEX 01 03:14:00
TRACK 03 AUDIO
TITLE "Song from a Secret Garden"
PERFORMER "Secret Garden"
INDEX 00 07:01:26
INDEX 01 07:04:62
TRACK 04 AUDIO
TITLE "Sigma"
PERFORMER "Secret Garden"
INDEX 00 10:36:01
INDEX 01 10:39:55
TRACK 05 AUDIO
TITLE "Papillon"
PERFORMER "Secret Garden"
INDEX 00 13:45:26
INDEX 01 13:47:57
TRACK 06 AUDIO
TITLE "Serenade to Spring"
PERFORMER "Secret Garden"
INDEX 00 17:10:26
INDEX 01 17:13:57
TRACK 07 AUDIO
TITLE "Atlantia"
PERFORMER "Secret Garden"
INDEX 00 20:25:63
INDEX 01 20:29:02
TRACK 08 AUDIO
TITLE "Heartstrings"
PERFORMER "Secret Garden"
INDEX 00 23:26:01
INDEX 01 23:28:10
TRACK 09 AUDIO
TITLE "Adagio"
PERFORMER "Secret Garden"
INDEX 00 26:47:26
INDEX 01 26:53:45
TRACK 10 AUDIO
TITLE "The Rap"
PERFORMER "Secret Garden"
INDEX 00 29:45:26
INDEX 01 29:48:37
TRACK 11 AUDIO
TITLE "Chaconne"
PERFORMER "Secret Garden"
INDEX 00 32:19:26
INDEX 01 32:22:60
TRACK 12 AUDIO
TITLE "Cantoluna"
PERFORMER "Secret Garden"
INDEX 00 35:47:38
INDEX 01 35:50:32
TRACK 13 AUDIO
TITLE "Ode to Simplicity"
PERFORMER "Secret Garden"
INDEX 00 39:19:51
INDEX 01 39:22:50
下载完 Songs.From.A.Secret.Garden.XRCD2.ape 把这个文件中间的"."改为空格,CUE文件就可以正常播放了.不要改CUE文件内容 (利于共享)
我在网上下了N个版本,经过音频软件对比后,这个版本是最好的.

识货的下......