张韶涵 -《潘朵拉》[APE]

张韶涵 -《潘朵拉》[APE]
  • 片  名  张韶涵 -《潘朵拉》[APE]
  • 简  介  发行时间: 2006年地区: 台湾语言: 普通话
  • 类  别  音乐
  • 小  类  华语音乐


  • 详细介绍专辑中文名: 潘朵拉歌手: 张韶涵资源格式: APE发行时间: 2006年地区: 台湾语言: 普通话简介:
    专辑介绍:
      从亚洲新声音到听见声音的光,2006年的张韶涵,将呈现充满奇幻童趣的音乐新元素。
      【现代电子摇滚风,童趣游戏的潘朵拉】
      直接且具穿透力的声音能量,有着让人深刻戏剧感、游戏化声音语言的张韶涵,将在新专辑中打造全新的声光世界,一如打开潘朵拉的盒子,将带领大家嬉游于童趣的、魔幻的、冒险的、惊奇的、绮丽的、爱情的…..音乐声光世界。
      新歌‘潘朵拉’,充满现代电子摇滚风,直率的声音表现,充满童趣的音乐元素,由天王天后制作人陈伟与作词顽童于光中量声打造,描写爱情有如潘朵拉的盒子,必须撕开糖衣包装,才能在好奇心与温柔心的催化下,寻找到真爱。
  • 张韶涵 -《潘朵拉》[APE]_large

精选评论

CUE不对啊!
请楼主尽快修改,谢谢!
PERFORMER "张韶涵"
TITLE "潘朵拉"
FILE "张韶涵.-.[潘朵拉].专辑.(APE).ape" WAVE
TRACK 01 AUDIO
TITLE "隐形的翅膀"
PERFORMER "张韶涵"
INDEX 01 00:00:00
TRACK 02 AUDIO
TITLE "潘朵拉"
PERFORMER "张韶涵"
INDEX 00 03:42:06
INDEX 01 03:44:06
TRACK 03 AUDIO
TITLE "香水百合"
PERFORMER "张韶涵"
INDEX 00 07:38:48
INDEX 01 07:40:48
TRACK 04 AUDIO
TITLE "真的"
PERFORMER "张韶涵"
INDEX 00 10:36:00
INDEX 01 10:38:00
TRACK 05 AUDIO
TITLE "最近"
PERFORMER "张韶涵"
INDEX 00 15:09:51
INDEX 01 15:11:51
TRACK 06 AUDIO
TITLE "惊天动地"
PERFORMER "张韶涵"
INDEX 00 18:40:71
INDEX 01 18:42:71
TRACK 07 AUDIO
TITLE "保护色"
PERFORMER "张韶涵"
INDEX 00 22:45:38
INDEX 01 22:47:38
TRACK 08 AUDIO
TITLE "口袋的天空"
PERFORMER "张韶涵"
INDEX 00 26:30:40
INDEX 01 26:32:40
TRACK 09 AUDIO
TITLE "爱情旅程"
PERFORMER "张韶涵"
INDEX 00 30:54:23
INDEX 01 30:56:23
TRACK 10 AUDIO
TITLE "喜欢你没道理"
PERFORMER "张韶涵"
INDEX 00 35:32:41
INDEX 01 35:34:41
TRACK 11 AUDIO
TITLE "永昼"
PERFORMER "张韶涵"
INDEX 00 38:54:35
INDEX 01 38:56:35
大家把.cue文件用记事本打开..改成以上内容保存即可..
支持楼主。好难找啊。
感谢分享
Tau Analyzer v1.2分析过,是APE,大家放心下吧。
支持一下她的歌,都是些好歌
我发现现在很多流行音乐都是这样,在20500HZ以上就被削波了,也不知道什么原因,但可以肯定这是唱片公司就这样做了,因为大量的下载的都是这样,不是个例。这个跟320MP3还是不一样的,MP3的峰值频率还是比这个低一点。
非常喜歡~感謝提供分享!
支持楼主
人耳只能听到20000Hz

CD制作过程中会用滤波器滤出20-20khz的频率,所以会这样啊
全了 感谢楼主分享!!!
太好了,涵的所有专辑我都下了。
谢谢!