《蝉鸣之时·解罪滅し編主题曲》(Higurashi Kai)[ED Single][C74][前原圭一][附BK][APE]

《蝉鸣之时·解罪滅し編主题曲》(Higurashi Kai)[ED Single][C74][前原圭一][附BK][APE]
  • 片  名  《蝉鸣之时·解罪滅し編主题曲》(Higurashi Kai)[ED Single][C74][前原圭一][附BK][APE]
  • 简  介  发行时间: 2008年08月15日对白语言: 日语
  • 类  别  动漫
  • 小  类  动漫周边


  • 详细介绍中文名: 蝉鸣之时·解罪滅し編主题曲英文名: Higurashi Kai别名: ひぐらしのなく頃に 罪滅し編版本: [ED Single][C74][前原圭一][附BK][APE]发行时间: 2008年08月15日地区: 日本对白语言: 日语简介:
    【剧情介绍】
    昭和58年初夏。今年的酷暑来得比往年都早,6月的日子里,从早到晚,蜩儿都在欢快地合唱它们的主题曲。××县鹿骨市。县境中的一个小村庄,雏见泽村。在这个人口不足2000人的小村子里,每年都会发生一些奇怪的事情。雏见泽村连续怪死事件 (1979年~1983年)。每年6月的某日,一定会有1人死亡, 1人消失,十分离奇。围绕着巨大水库的争斗死亡的惨案连续发生。隐藏在昭和中期的怪事逐个清晰起来了。这是阴谋,是偶然,还是有什么东西在作祟呢?应该存在人消失了。不应该存在的人出现了。昨夜相会的人已经死了。现在活着的人也死了。惨剧不可避免。除了屈服别无他法。但是,不能屈服。只有你才能去面对……
    【单曲介绍】
    ドラマCD ひぐらしのなく頃に解 罪滅ぼし編 ED あの日、あの場所、全てに「ありがとう」/前原圭一 (保志総一朗)
    * 商品番号: HBMS-041
    * メディア: シングルCD
    * 組枚数: 1
    * 発売日: 2008/08/15
    * 価格: 1,260円(税込)
    * 内容
    ドラマCD「ひぐらしのなく頃に解 罪滅ぼし編」のEDテーマが遂にシングルカット!
    万感の想いを歌声に乗せて届ける「あの日、あの場所、全てに『ありがとう』」。
    【Artist Cast】
    歌:前原圭一(cv:保志総一朗)
    【收录曲目】
    01.あの日、あの場所、全てに「ありがとう」
    02.Overload
    03.あの日、あの場所、全てに「ありがとう」 (Off Vocal version)
    04.Overload (Off Vocal version)
    05.あの日、あの場所、全てに「ありがとう」 羽鳥風画 original version
    06.あの日、あの場所、全てに「ありがとう」 (bAsHEE arenge version)
  • 《蝉鸣之时·解罪滅し編主题曲》(Higurashi Kai)[ED Single][C74][前原圭一][附BK][APE]_large

精选评论

这个我不懂
很喜欢这片子,情节有点歪,人物貌似都被刻画成了披着人皮的狼,但我就是喜欢,比较另类的动漫,哈哈。据说在国外尤其日本本土超火。
文化差异吧,中国人似乎对这种恐怖悬疑的动漫感冒。。。
这里每个人都在努力突破这个命运的怪圈,在一个个不得不接受的轮回中,发现自己身处的世界的异常。但是由于与常理格格不入,因此无人理解,而在打破宿命的过程中,每个人的选择都不一样,结果自然不尽相同,不过所谓不同差异也只是每个人的挣扎方式不同而已,最后都是相同的结局-全灭。无数条分支出现了,又汇集在了一点上,无数个平行的雏见泽,一个终结。
类似轮回的平行世界的设定在游戏里应该很多吧,类似NEVER17之类的,而且这个动画本身也是游戏改编的,连不是那么细致的画风也移植过来了。
情节歪算不上,披着人皮的狼。。。
那是在命运中被扭曲了的人性。。。
那是潜能,那是心中的黑暗面,那是原子的激发态。。。
PERFORMER "歌:前原圭一(cv:保志総一朗)"
TITLE "ドラマCD ひぐらしのなく頃に解 罪滅ぼし編 ED あの日、あの場所、全てに「ありがとう」"
FILE "CDImage.ape" WAVE
TRACK 01 AUDIO
TITLE "01.あの日、あの場所、全てに「ありがとう」"
PERFORMER "歌:前原圭一(cv:保志総一朗)"
ISRC JPG390800077
FLAGS DCP
INDEX 01 00:00:00
TRACK 02 AUDIO
TITLE "02.Overload"
PERFORMER "歌:前原圭一(cv:保志総一朗)"
ISRC JPG390800078
FLAGS DCP
INDEX 00 05:05:25
INDEX 01 05:07:72
TRACK 03 AUDIO
TITLE "03.あの日、あの場所、全てに「ありがとう」 (Off Vocal version)"
PERFORMER "歌:前原圭一(cv:保志総一朗)"
ISRC JPG390800079
FLAGS DCP
INDEX 00 11:35:30
INDEX 01 11:39:02
TRACK 04 AUDIO
TITLE "04.Overload (Off Vocal version)"
PERFORMER "歌:前原圭一(cv:保志総一朗)"
ISRC JPG390800080
FLAGS DCP
INDEX 00 16:47:05
INDEX 01 16:49:52
TRACK 05 AUDIO
TITLE "05.あの日、あの場所、全てに「ありがとう」 羽鳥風画 original version"
PERFORMER "歌:前原圭一(cv:保志総一朗)"
ISRC JPG390800081
FLAGS DCP
INDEX 00 23:17:10
INDEX 01 23:21:57
TRACK 06 AUDIO
TITLE "06.あの日、あの場所、全てに「ありがとう」 (bAsHEE arenge version) "
PERFORMER "歌:前原圭一(cv:保志総一朗)"
ISRC JPG390800082
FLAGS DCP
INDEX 00 28:26:01
INDEX 01 28:28:50