吴建豪&安七炫 -《SCANDAL》台湾中文版[APE]

吴建豪&安七炫 -《SCANDAL》台湾中文版[APE]
  • 片  名  吴建豪&安七炫 -《SCANDAL》台湾中文版[APE]
  • 简  介  音乐风格: 流行发行时间: 2006年6月16日地区: 台湾语言: 普通话
  • 类  别  音乐
  • 小  类  华语音乐


  • 详细介绍专辑中文名: SCANDAL歌手: 吴建豪 安七炫音乐风格: 流行资源格式: APE版本: 台湾中文版发行时间: 2006年6月16日地区: 台湾语言: 普通话简介: 专辑介绍:
    ★天王竞技场‘SCANDAL’
    ★中韩巨星首度跨国联手出辑
    ★亚洲天团 F4 吴建豪
    ★韩国顶极人气团体 H.O.T 安七炫
    ⊙史上最强跨国双天王男子团体
    超强对手完美组合“KANGTA VANNESS”诞生!
    跨越国界、种族、语言的限制,史上最强的跨国双天王组合诞生了!韩国巨星KANGTA安七炫与中国台湾超人气团体F4成员VANNESS吴建豪,两位各霸一方的天王组合成了“KANGTA VANNESS”,以全亚洲为目标,展开全方位的演艺活动!成军的首要活动便是两人以中、英、韩三种语文共同制作演唱的专辑“SCANDAL”!
    KANGTA安七炫与VANNESS吴建豪第一次结缘,是在2004年台湾金曲奖颁奖典礼上,之前吴建豪就觉得安七炫是位资历很深的韩国明星,从他还是 H.O.T成员时就注意过他,甚至也买过他的个人专辑;而安七炫知道吴建豪是在华人圈拥有顶级人气的F4成员,因为电视剧“流星花园”而在韩国有众多 FANS。互相欣赏的两人也因为彼此的经纪公司牵线,而展开共同合作。
    在筹备两人共同的“SCANDAL”专辑的两个多月期间,安七炫与吴建豪跨越语言的限制,以英语沟通,安七炫学习中文、吴建豪学习韩语,彼此互相了解,一同创作人类共通的语言—音乐,来一场跨国界的文化交流!身为天王级的跨国二人组合第一次尝试,两人对此都感受到沉甸甸的责任感,也因此更全力以赴,要做新的文化交流先锋,做出全亚洲人都可以分享的音乐!
    ⊙全城最热话题专辑“SCANDAL”
    吴建豪与安七炫共同创作 中、英、韩三语齐下跨越国际
    安七炫大展音乐才华 担任专辑制作人 词、曲创作小露身手
    “KANGTA VANNESS”的首张专辑“SCANDAL”亚洲版收录了全世界正流行的“Crunk B’ ”曲风,充满律动感同名主打歌“SCANDAL”的中、英、韩三种语言版本,抒情歌曲“127日”、FUNKY轻快曲风的“ONE DAY”、中板Trendy R B曲风的“GOOD VIBRATION”这三首歌的的中、韩语版本,以及翻唱自梁静茹“勇气”的歌曲“Faint”等10 首歌曲。正如专辑名称“SCANDAL”,吴建豪与安七炫希望这张专辑成为全亚洲最吸引人的热门话题!
    “SCANDAL”专辑中吴建豪与安七炫两人都发挥各自的音乐长处,不但由安七炫担任所有的歌曲制作,而且两人都演唱中、英、韩三种语言,吴建豪主要负责 RAP部分的表演与RAP歌词撰写,以及“SCANDAL”英文版的歌词;安七炫则自己担任了“127日”、“ONE DAY”的词曲撰写与“Faint”的作词。主打歌“SCANDAL”是由韩国知名音乐人柳英真的作品,采用了世界上最流行的Crunk B’旷课曲风,让吴建豪与安七炫在重拍节奏中展现powerful舞蹈演出;安七炫的漂亮嗓音与吴建豪柔软的Rap完美调和,在歌曲进行中演绎出多种唱法。
    ⊙韩国SM唱片顶尖幕后高手全力协助
    造型、舞蹈、MV上亿韩圜最高规格打造
    为了这张中韩天王级艺人跨国合作的专辑,韩国打造偶像艺人最为专业的SM唱片公司特地花费上亿韩圜,邀来各路顶尖高手为 KANGTA VANNESS打造“SCANDAL”专辑的全新造型、编舞以及MV拍摄。包括曾为东方神起、李孝利、BUZZ的造型师李升憙 (Lee Seung Hee)、张孝真,KANGTA安七炫的御用编舞老师DOHC编舞队,以及拍过BoA的“MOTO”、东方神起的 “Rising Sun”、Super junior的“Miracle”、天上之喜的“Boomerang”的知名导演千赫镇 ( Chun Hyuk Jin ),还有名摄影师金贤圣、艺
  • 吴建豪&安七炫 -《SCANDAL》台湾中文版[APE]_large

精选评论

好东西,先顶了~
收了~ 谢谢!
撇火药。
一直很费解kang ta为何为何他在一起
就是KANG TA那么牛B一人,怎么会和吴建豪混一起。。。。。。。。
楼上2位 = =
虽然额也很费解
不过还OK啦~比起。。。
弱弱的支持下,谢谢分享
雖然曾經是HOT的超級飯,但是還是不得不說,這個組合啊。。。唉,KANGTA爲什麽要搞什麽組合呢,獨唱歌手不好麽。。。
这2个娃 不行~
吴建豪和kangta真不是一个档次的!
127日这首歌曲的MV很棒的!
看标是引进版···
CUE是错误的,无法分割。
把APE文件命名成“吴建豪.-.[SCANDAL].专辑.(ape).ape;
CUE命名成“吴建豪.-.[SCANDAL].专辑.(ape).cue”

用记事本编辑CUE,把如下的粘上去,保存,OK! 经测试成功分割...

PERFORMER "吴建豪"
TITLE "SCANDAL"
FILE "吴建豪.-.[SCANDAL].专辑.(ape).ape" WAVE
TRACK 01 AUDIO
TITLE "SCANDAL"
PERFORMER "吴建豪"
INDEX 01 00:00:00
TRACK 02 AUDIO
TITLE "127日"
PERFORMER "吴建豪"
INDEX 00 03:36:40
INDEX 01 03:38:39
TRACK 03 AUDIO
TITLE "GOOD VIBRATION"
PERFORMER "吴建豪"
INDEX 00 07:46:44
INDEX 01 07:48:43
TRACK 04 AUDIO
TITLE "One Day"
PERFORMER "吴建豪"
INDEX 00 12:00:25
INDEX 01 12:02:24
TRACK 05 AUDIO
TITLE "SCANDAL (韩)"
PERFORMER "吴建豪"
INDEX 00 16:16:62
INDEX 01 16:18:61
TRACK 06 AUDIO
TITLE "127 day (韩)"
PERFORMER "吴建豪"
INDEX 00 19:55:14
INDEX 01 19:57:13
TRACK 07 AUDIO
TITLE "GOOD VIBRATION (韩)"
PERFORMER "吴建豪"
INDEX 00 24:02:01
INDEX 01 24:04:00
TRACK 08 AUDIO
TITLE "One Day (韩)"
PERFORMER "吴建豪"
INDEX 00 28:15:56
INDEX 01 28:17:55
TRACK 09 AUDIO
TITLE "勇气 (韩)"
PERFORMER "吴建豪"
INDEX 00 32:28:03
INDEX 01 32:30:02
TRACK 10 AUDIO
TITLE "SCANDAL (英)"
PERFORMER "吴建豪"
INDEX 00 36:14:08
INDEX 01 36:16:07