pink floyd -《UMMAGUMMA Studio Album》[APE]

pink floyd -《UMMAGUMMA Studio Album》[APE]
  • 片  名  pink floyd -《UMMAGUMMA Studio Album》[APE]
  • 简  介  发行时间: 1969年地区: 美国语言: 英语
  • 类  别  音乐
  • 小  类  欧美音乐


  • 详细介绍专辑中文名: UMMAGUMMA Studio Album歌手: pink floyd资源格式: APE发行时间: 1969年地区: 美国语言: 英语简介:
    专辑名称:UMMAGUMMA Studio Album
    专辑歌手:pink floyd
    发行日期:1969
    专辑语种:英语
    压缩比率:714kps
    专辑介绍:
    《Ummagumma》简介
    UMMAGUMMA 为两张一套的专辑,分为现场录音和录音室作品,而专辑标题 UMMAGUMMA 则是对于性行为的较委婉的叫法。该专辑的第一盘为他们于1969年6月在英国Birmingham郡的 Mothers 俱乐部以及曼彻斯特商业学院进行的现场表演实况录音,在这张现场录音里 Pink Floyd 为我们展现了在那个国际大环境下的那些有名无实的领导人的无奈表情,录音极为精致,全部四首歌曲( Astronomy Domine, Careful with That Axe, Eugene, Set the Controls for the Heart of the Sun, A Saucerful of Secrets )都是他们早年非常喜爱的歌曲。而第二盘则为乐团的各自成员各自独立创作演奏的录音,它要求每位成员都贡献一至两首曲目,并要有不同的变化。这种前卫的尝试并不令我们感到激动甚至有些糟糕的感觉,但相对而言 Roger Waters 所谱写的的 Grantchester Meadows 则是一首令人喜爱的民谣风格的作品,甚至可以说是他们早年最好的作品之一。或许是觉得上一张由乐队独立制作的唱片的成绩不够理想,因此在这张专辑中,乐队又恢复和 Norman Smith 的合作关系,共同制作完成了这部专辑。
    或许人们更喜欢他们后来的大作 DARK SIDE OF THE MOON,但铁杆迷幻乐的支持者们依旧将 UMMAGUMMA 看作是后 Barrett 时代中,Floyd 所取得的成就的一个顶峰。从东方韵味十足的 Set the Controls for the Heart of the Sun 到极具登峰造极迷幻色彩的 Careful With That Axe, Eugene , UMMAGUMMA 专辑的第一部分已被广为认可为是一张十足表现外太空摇滚风格的专辑,同时也是他们第一部演唱会专辑。似乎他们不太喜欢制作演唱会专辑,不知这是否与 Waters 的思想有关?因此直到20年后,乐团在 Waters 离开后才制作发行了他们第二部演唱会专辑 Delicate Sound of Thunder。有意思的是,他们所放弃的这块阵地却被很多小唱片公司所利用,它们制作发行了大量的乐团在世界各地的演唱会录音。
    而在专辑的第二部分是由4位乐队成员分别依次完成的4首将独立曲目经过加长及变奏的演出方式所表现出来的其独奏效果则无可争议地成为乐队最具实验性的且与众不同的音响效果代表。说心里话,我觉得他们之所以和它一起推出他们演唱会专辑可能因为他们也觉得他们此次的制作有点前卫了,可能不少乐迷无法接受他们的实验,因此同时推出演唱会专辑多少可以避免一下可能出现的难堪,至少可以给那些不满意他们此次实验性制作的补偿。录音室专辑中表现最为突出的应该是里面屈指可数的歌曲 —— Roger Waters 谱写的谦逊、略带活泼的乡村色调的民谣曲式风格的 Grantchester Meadows 以及主音键盘手 Richard Wright 的多段式乐曲 Sysyphus ,而 Roger Waters 创作的“Several Species of Small Furry Animals Gathered Together in a Cave and Grooving With a Pict.”是他们声名显赫但又极为少见的怪曲名。撇开在乐队的第一部专辑中所表现出的迷人的带有受 Kinks 影响的大众化丰富多采的风格,这部现场演奏专辑则建立在扩展的,近似激情的演奏,沉重的迷幻色彩的压迫感以及其电子音乐所构造出的气氛等等之上的。
    UMMAGUMMA 是他们第一部进入美国专辑榜Top10啲作品,它在美最终取得74名的成绩,不过在英国他们继前三部作品一样继续打入英国排行榜的Top10强,并拿到第五的好成绩。国外音乐杂志对这部专辑
  • pink floyd -《UMMAGUMMA Studio Album》[APE]_large

精选评论

经典!
沒聽過這張
感谢楼主 pink floyd的东西很宝贵啊
CD1哪去了?
这张专辑并不完整,CD1楼主很不负责任地没有放上去,我无语了
PERFORMER "Pink Floyd"
TITLE "Ummagumma"
FILE "CDImage.ape" WAVE
TRACK 01 AUDIO
TITLE "Sysyphus Part 1,Richard Wrig"
INDEX 01 00:00:00
TRACK 02 AUDIO
TITLE "Sysyphus Part 2,Richard Wrig"
INDEX 01 01:10:00
TRACK 03 AUDIO
TITLE "Sysyphus Part 3,Richard Wrig"
INDEX 01 04:35:00
TRACK 04 AUDIO
TITLE "Sysyphus Part 4,Richard Wrig"
INDEX 01 06:28:00
TRACK 05 AUDIO
TITLE "Ummagumma"
INDEX 01 13:29:00
TRACK 06 AUDIO
TITLE "Several Species Of Small Furry"
INDEX 01 20:58:00
TRACK 07 AUDIO
TITLE "The Narrow Way Part 1,David"
INDEX 01 26:00:00
TRACK 08 AUDIO
TITLE "The Narrow Way Part 2,David"
INDEX 01 29:27:00
TRACK 09 AUDIO
TITLE "The Narrow Way Part 3,David"
INDEX 01 32:20:00
TRACK 10 AUDIO
TITLE "The Grand Vizer's Garden Part 1"
INDEX 01 38:13:00
TRACK 11 AUDIO
TITLE "The Grand Vizer's Garden Part 2"
INDEX 01 39:16:00
TRACK 12 AUDIO
TITLE "The Grand Vizer's Garden Part 3"
INDEX 01 46:28:00
双CD的链接在这里: