巴赫 Bach -《B小调弥撒》(Mass in B Minor)Gustav Leonhardt,La Petite Bande,DHM[APE]

巴赫 Bach -《B小调弥撒》(Mass in B Minor)Gustav Leonhardt,La Petite Bande,DHM[APE]
  • 片  名  巴赫 Bach -《B小调弥撒》(Mass in B Minor)Gustav Leonhardt,La Petite Bande,DHM[APE]
  • 简  介  发行时间: 1992年
  • 类  别  音乐
  • 小  类  古典音乐


  • 详细介绍专辑英文名: Mass in B Minor专辑中文名: B小调弥撒别名: BWV 232艺术家: 巴赫 Bach资源格式: APE版本: Gustav Leonhardt,La Petite Bande,DHM发行时间: 1992年地区: 德国简介: 作曲:J.S.Bach
    作词:J.S.Bach
    指挥:Gustav Leonhardt
    演唱:Isabelle Poulenard(soprano), Guillemette Laurens(mezzo-soprano), Rene Jacobs(alto), John Elwes(tenor), Max van Egmond(bass), Hary van der Kamp(bass)
    乐团: La Petite Bande, Collegium Musicum Van De Nederlandse Bach Vereniging
    录音日期:1985
    发行公司:DHM
    资源出处:Emule搜索
    专辑介绍:
    巴赫一共作有5部弥撒曲,这一部规模最大,无疑也是5部中最优秀的一部。
    弥撒是一种极为古老的形式,是基督教从一开始就经常举行的为纪念耶稣在被卖的前夜所举行的“末次晚餐”,13世纪起,弥撒成了教会中重要的仪礼。弥撒一词源于:“It missa est”,即举行仪式后,神职人员向会众所说的“会众可以退席”,因此仪式没有名称,后即以“mass”一词作为专指此仪式之名词。正规弥撒分几大部分,即:1.恳求主,赐怜悯(Kyrie eleison);2.荣耀颂(Gloria);3.使徒信经(Gredo);4 圣哉,圣哉,圣哉(Sanctus);5.奉主名来的当受称颂(Benedlictus);6.上帝的羔羊(Agnus Dei)。
    巴赫于1733年写成了这部弥撒中的“恳求主。赐怜悯”(Kyrie)和“荣耀颂”(Gloria)这两段,是为奉献给萨克逊的选侯西格斯蒙德三世(Sigismund III)的,当时这位选侯是巴赫所居之地的地方长官,后来成为波兰的国王。巴赫将这两段乐曲奉献给他并附有一信,请求选侯指派他为选侯的宫廷作曲家,信中还说:“这两首作品可以算作我的作品中非常有特殊意义的乐曲。”
    巴赫是一位新教路德宗的信徒,但1514年马丁·路德进行宗教改革,成立新教之后,在新教的崇拜中,并没有废除原来天主教所用的弥撒这一崇拜仪式,只是有时把弥撒中“奉献”(Offertory)部分改为由牧师宣教,所以《B小调弥撒》中没有“奉献”这一部分。新教崇拜仪式中仍保留传统天主教弥撒中的“恳求主,赐怜悯”(Kyrie eleison),荣耀颂”(Gloria),“使徒信经”(Credo),“圣哉,圣哉,圣哉!”(Sanctus)和“上帝的羔羊”(Agnus Dei)5部分。作品中又加上了高度成熟的技术,使之更有浓重的宗教气氛。
    美国著名指挥家斯托科夫斯基(Stokowski, Leopold 1882—1977)曾说过:“巴赫的这部作品确实是音乐领域中最崇高的作品。”他又说,“巴赫的《B小调弥撒》是从一个很广泛的音域中构筑成功的,音乐的结构非常复杂而且其技术集中反映出巴赫的灵感是缓慢而很丰富地流露出来的。在巴赫笔下,把传统弥撒的段落加以扩充了,几乎在《B小调弥撒》中,包含了全宇宙所有的情感和意识……”
    巴赫的这首《B小调弥撒》属于“康塔塔—弥撒”(Cantata-Mass)。在这种弥撒中,独唱与合唱之间有强烈的对比,管弦乐色彩宏丽,把一切歌剧及清唱剧(Oratorio)中的手法也引用进来。在这部作品中,女高音的花腔式唱法来自意大利的歌剧,华美壮丽的二重唱则来自阿戈斯蒂诺·斯特凡尼(Agostino Steffani 1654—1728)的手法。
    巴赫把这部弥撒分为5部分24段,这种分法完全是他自己的决定,绝无先例。他把“使徒信经”分为8段也完全没有任何先例,而第8段(总第19段)又明显地可以再分为两段,这就使“使徒信经”成了9段,这9段中是以“被钉于十字架”(第5,总第16段)为中心,前后各有4段。巴赫作为基督徒,其信仰的中心就是“耶稣被钉在十字架”,这也就是耶稣所以降生于世上的目的,从而我们可以证明巴赫的这部作
  • 巴赫 Bach -《B小调弥撒》(Mass in B Minor)Gustav Leonhardt,La Petite Bande,DHM[APE]_large

精选评论

test
好东东啊。 支持啊!!!!
音乐之父
巴洛克时期的音乐还是不怎么喜欢
感觉太冗长了
多听就会喜欢了。 >_<
平时听的不多
不过这时候真的想听听呢
悼念。

Amen。。
能麻烦楼主给补一个这个版本录音的介绍不?
我现在很大一部分时间都是在听楼主发的BACH唱片中度过的,小弟谢过了!
Gustav Leonhardt 还有kuijken手下的La Petite Bande简直是奇迹。关于B小调的这个从里希特到海勒维格的我都收了,但是觉得解析最好的还就是这个版本,很多人不喜欢,很多人说Leonhardt老人家将B小调演绎的宛如成了一部被拉长的歌剧一样。 不过我认为他的演绎方式是纯粹的,是尊重宗教以及受难本身的。B小调弥撒可不是一部非常简单的作品。其中的介绍屡见不鲜 我不多说。不过听这个版本的人一定要注意一个非常美妙的细节。

童声的运用!!!
愿主垂怜那些在地震中遇难的同胞!愿他们升入天堂安息!
感谢楼主分享!
为什么我的有暴音,你们有没有?
巴赫的Mass in B Minor我听过近十个录音,比较下来,还是喜欢用现代乐队演奏的。仿古派精雕细琢,却难以用感情打动人。连被捧得很高的GARDINER版也有同样的缺陷。由于古乐器性能的限制,有些章节不得不奏得很快,结果该慢的地方慢不下来。或许有人会说,巴赫时期就用这样的乐器,巴赫自己若是指挥,也会这样快的。此话不假,但是巴赫并没有拥有改进了的乐器,自然难以想象后人怎样自己的作品。Richter的1959年ARCHIV版和MUNCHINGER的1970年DECCA版我最满意。
Richter的Archiv录音和
又一个不错的版本。
发个CUE文件
REM GENRE Vocal
PERFORMER "Gustav Leonhart/La Petite Bande"
TITLE "Mass in B minor BWV 232"
FILE "01 - Kyrie - Coro-Kyrie eleison.ape" WAVE
TRACK 01 AUDIO
TITLE "01 - Kyrie - Coro-Kyrie eleison"
PERFORMER "Johann Sebastian Bach"
INDEX 01 00:00:00
FILE "02 - Kyrie - D (soprano I-II)-Christe eleison.ape" WAVE
TRACK 02 AUDIO
TITLE "02 - Kyrie - D (soprano I-II)-Christe eleison"
PERFORMER "Johann Sebastian Bach"
INDEX 01 00:00:00
FILE "03 - Kyrie - Coro-Kyrie eleison.ape" WAVE
TRACK 03 AUDIO
TITLE "03 - Kyrie - Coro-Kyrie eleison"
PERFORMER "Johann Sebastian Bach"
INDEX 01 00:00:00
FILE "04 - Gloria - Coro-Gloria in excelsis Deo.ape" WAVE
TRACK 04 AUDIO
TITLE "04 - Gloria - Coro-Gloria in excelsis Deo"
PERFORMER "Johann Sebastian Bach"
INDEX 01 00:00:00
FILE "05 - Gloria - Coro-Et in terra pax.ape" WAVE
TRACK 05 AUDIO
TITLE "05 - Gloria - Coro-Et in terra pax"
PERFORMER "Johann Sebastian Bach"
INDEX 01 00:00:00
FILE "06 - Gloria - Aria (soprano)-Lauamus te.ape" WAVE
TRACK 06 AUDIO
TITLE "06 - Gloria - Aria (soprano)-Lauamus te"
PERFORMER "Johann Sebastian Bach"
INDEX 01 00:00:00
FILE "07 - Gloria - Coro-Gratias agimus tibi.ape" WAVE
TRACK 07 AUDIO
TITLE "07 - Gloria - Coro-Gratias agimus tibi"
PERFORMER "Johann Sebastian Bach"
INDEX 01 00:00:00
FILE "08 - Gloria - D (soprano-tenor)-Domine Deus.ape" WAVE
TRACK 08 AUDIO
TITLE "08 - Gloria - D (soprano-tenor)-Domine Deus"
PERFORMER "Johann Sebastian Bach"
INDEX 01 00:00:00
FILE "09 - Gloria - Coro-Qui tollis peccata mundi.ape" WAVE
TRACK 09 AUDIO
TITLE "09 - Gloria - Coro-Qui tollis peccata mundi"
PERFORMER "Johann Sebastian Bach"
INDEX 01 00:00:00
FILE "10 - Gloria - Aria (contralto)-Qui sedes ad dexteram patris.ape" WAVE
TRACK 10 AUDIO
TITLE "10 - Gloria - Aria (contralto)-Qui sedes ad dexteram patris"
PERFORMER "Johann Sebastian Bach"
INDEX 01 00:00:00
FILE "11 - Gloria - Aria (bajo)-Quoniam tu solus Sanctus.ape" WAVE
TRACK 11 AUDIO
TITLE "11 - Gloria - Aria (bajo)-Quoniam tu solus Sanctus"
PERFORMER "Johann Sebastian Bach"
INDEX 01 00:00:00
FILE "12 - Gloria - Coro-Cum Sancto Spiritu.ape" WAVE
TRACK 12 AUDIO
TITLE "12 - Gloria - Coro-Cum Sancto Spiritu"
PERFORMER "Johann Sebastian Bach"
INDEX 01 00:00:00
FILE "13 - Credo - Coro-Credo in unum Deum.ape" WAVE
TRACK 13 AUDIO
TITLE "13 - Credo - Coro-Credo in unum Deum"
PERFORMER "Johann Sebastian Bach"
INDEX 01 00:00:00
FILE "14 - Credo - Coro-Patrem omnipotentem.ape" WAVE
TRACK 14 AUDIO
TITLE "14 - Credo - Coro-Patrem omnipotentem"
PERFORMER "Johann Sebastian Bach"
INDEX 01 00:00:00
FILE "15 - Credo - D (soprano-contralto)-Et in unum Dominum.ape" WAVE
TRACK 15 AUDIO
TITLE "15 - Credo - D (soprano-contralto)-Et in unum Dominum"
PERFORMER "Johann Sebastian Bach"
INDEX 01 00:00:00
FILE "16 - Credo - Coro-Et incarnatus est.ape" WAVE
TRACK 16 AUDIO
TITLE "16 - Credo - Coro-Et incarnatus est"
PERFORMER "Johann Sebastian Bach"
INDEX 01 00:00:00
FILE "17 - Credo - Coro-Crucifixus.ape" WAVE
TRACK 17 AUDIO
TITLE "17 - Credo - Coro-Crucifixus"
PERFORMER "Johann Sebastian Bach"
INDEX 01 00:00:00
FILE "18 - Credo - Et resurrexit.ape" WAVE
TRACK 18 AUDIO
TITLE "18 - Credo - Et resurrexit"
PERFORMER "Johann Sebastian Bach"
INDEX 01 00:00:00
FILE "19 - Credo - Aria (bajo)-Et in Spiritum Sanctum.ape" WAVE
TRACK 19 AUDIO
TITLE "19 - Credo - Aria (bajo)-Et in Spiritum Sanctum"
PERFORMER "Johann Sebastian Bach"
INDEX 01 00:00:00
FILE "20 - Credo - Coro-Confiteor.ape" WAVE
TRACK 20 AUDIO
TITLE "20 - Credo - Coro-Confiteor"
PERFORMER "Johann Sebastian Bach"
INDEX 01 00:00:00
FILE "21 - Credo - Coro-Et expecto.ape" WAVE
TRACK 21 AUDIO
TITLE "21 - Credo - Coro-Et expecto"
PERFORMER "Johann Sebastian Bach"
INDEX 01 00:00:00
FILE "22 - Sanctus - Coro-Sanctus.ape" WAVE
TRACK 22 AUDIO
TITLE "22 - Sanctus - Coro-Sanctus"
PERFORMER "Johann Sebastian Bach"
INDEX 01 00:00:00
FILE "23 - Sanctus - Doble Coro-Osanna.ape" WAVE
TRACK 23 AUDIO
TITLE "23 - Sanctus - Doble Coro-Osanna"
PERFORMER "Johann Sebastian Bach"
INDEX 01 00:00:00
FILE "24 - Sanctus - Aria (tenor)-Benedictus.ape" WAVE
TRACK 24 AUDIO
TITLE "24 - Sanctus - Aria (tenor)-Benedictus"
PERFORMER "Johann Sebastian Bach"
INDEX 01 00:00:00
FILE "25 - Sanctus - Doble Coro-Osanna.ape" WAVE
TRACK 25 AUDIO
TITLE "25 - Sanctus - Doble Coro-Osanna"
PERFORMER "Johann Sebastian Bach"
INDEX 01 00:00:00
FILE "26 - Agnus Dei - Aria (contralto)-Agnus Dei.ape" WAVE
TRACK 26 AUDIO
TITLE "26 - Agnus Dei - Aria (contralto)-Agnus Dei"
PERFORMER "Johann Sebastian Bach"
INDEX 01 00:00:00
FILE "27 - Agnus Dei - Coro-Dona nobis pacem.ape" WAVE
TRACK 27 AUDIO
TITLE "27 - Agnus Dei - Coro-Dona nobis pacem"
PERFORMER "Johann Sebastian Bach"
INDEX 01 00:00:00