《君が見た地獄》[C75][光収容の倉庫][東方][同人音楽][含Booklet][TTA]

《君が見た地獄》[C75][光収容の倉庫][東方][同人音楽][含Booklet][TTA]
  • 片  名  《君が見た地獄》[C75][光収容の倉庫][東方][同人音楽][含Booklet][TTA]
  • 简  介  发行时间: 2008年12月30日对白语言: 日语文字语言: 日文
  • 类  别  动漫
  • 小  类  动漫周边


  • 详细介绍中文名: 君が見た地獄资源格式: TTA版本: [C75][光収容の倉庫][東方][同人音楽][含Booklet]发行时间: 2008年12月30日地区: 日本对白语言: 日语文字语言: 日文简介:
    【专辑介绍】
    [光収容の倉庫] 君が見た地獄
    disc No: HSY-008
    イベント価格:1000
    コミックマーケット75(2008/12/30)にて初頒布
    2008.1230 - 東方ProjectアレンジCD第三弾
    【Artist Cast】
    Produced by 光収容
    All music are composed by ZUN - 上海アリス幻楽団
    All arrangement/programing/performance by 光収容 - 光収容の倉庫
    Jacket illustrations by ツヤダシシュウジ - ドムール402
    Jacket designing by morisato - morisatoya music label
    【收录曲目】
    1. 淵に立つ
    - 明日ハレの日、ケの昨日 from 東方風神録
    2. 揺らぐ速度
    - 明日ハレの日、ケの昨日 from 東方風神録
    3. 君が見た地獄
    - 死体旅行 from 東方地霊殿
    4. 晴天の虹
    - フォールオブフォール from 東方風神録
    5. 五節必殺之六間
    - 旧地獄街道を行く from 東方地霊殿
    6. 君が見た幻想郷
    - 神々が恋した幻想郷 from 東方風神録
    7. 沈みゆく地面
    - 運命のダークサイド from 東方風神録
    8. 心の最前線
    - ハートフェルトファンシー from 東方地霊殿
    【相关网站】
  • 《君が見た地獄》[C75][光収容の倉庫][東方][同人音楽][含Booklet][TTA]_large

精选评论

白天供源可能会停止一段时间,
因为定的配件到了,
小升一下CPU和内存.
然后换windows7 beat了.~

最晚晚上之前会恢复供源..
好像挺不错的样子!
这张下的比较慢 不过真是赞啊 ....
听一下如何.........THX
同人音乐 不错,特别是一个trance这类的
被专辑的名字给吸引了。。。。
谁知道这玩意怎么放么。。。。
该文件后缀名都没有用。。。。
...封面美~XD
3Q3Q~
摇滚大爱
=V=
收藏先。。。实在装不下了。。。
原来包里cue无效 把这个TXT文本格式编辑后 改为CUE格式 替换源文件

REM GENRE Game
REM DATE 2008
REM DISCID 5E06BF08
REM COMMENT "ExactAudioCopy v0.99pb4"
PERFORMER "光収容の倉庫"
TITLE "君が見た地獄"
FILE "君が見た地獄.tta" WAVE
TRACK 01 AUDIO
TITLE "淵に立つ"
PERFORMER "光収容"
INDEX 01 00:00:00
TRACK 02 AUDIO
TITLE "揺らぐ速度"
PERFORMER "光収容"
INDEX 00 00:30:31
INDEX 01 00:32:32
TRACK 03 AUDIO
TITLE "君が見た地獄"
PERFORMER "光収容"
INDEX 00 04:54:34
INDEX 01 04:56:35
TRACK 04 AUDIO
TITLE "晴天の虹"
PERFORMER "光収容"
INDEX 00 09:20:73
INDEX 01 09:22:74
TRACK 05 AUDIO
TITLE "五節必殺之六間"
PERFORMER "光収容"
INDEX 00 12:50:06
INDEX 01 12:52:07
TRACK 06 AUDIO
TITLE "君が見た幻想郷"
PERFORMER "光収容"
INDEX 00 16:42:00
INDEX 01 16:44:01
TRACK 07 AUDIO
TITLE "沈みゆく地面"
PERFORMER "光収容"
INDEX 00 20:37:72
INDEX 01 20:39:73
TRACK 08 AUDIO
TITLE "心の最前線"
PERFORMER "光収容"
INDEX 00 24:32:57
INDEX 01 24:34:58