《イコルパトス》[例大祭6][セブンスヘブンMAXION][同人音楽][附7BK][TTA]

《イコルパトス》[例大祭6][セブンスヘブンMAXION][同人音楽][附7BK][TTA]
  • 片  名  《イコルパトス》[例大祭6][セブンスヘブンMAXION][同人音楽][附7BK][TTA]
  • 简  介  发行时间: 2009年03月08日对白语言: 日语文字语言: 日文
  • 类  别  动漫
  • 小  类  动漫周边


  • 详细介绍中文名: イコルパトス资源格式: TTA版本: [例大祭6][セブンスヘブンMAXION][同人音楽][附7BK]发行时间: 2009年03月08日地区: 日本对白语言: 日语文字语言: 日文简介: 【介紹】
    セブンスヘブンMAXION - イコルパトス
    ■商品番号:SHM-0021
    ■発売元:セブンスヘブンMAXION/Reliance:Tone
    ■発行日:2009年03月08日
    ■ジャンル:東方Project
    ■備考:音楽CD
    ■指定:一般
    ■販売価格:1365円(本体:1300円+税:65円)
    例大祭新譜となるCD『イコルパトス』が満を持して登場!
    東方旧作品から地霊殿までを網羅した一枚となっております。
    音楽は当サークル人気楽曲である
    『Phantom-Liberation』 『R.O.D.(Romantic Old Dream)』 『桜花輪転』
    などの楽曲を製作した【流歌】が完全プロデュース!
    ボーカル陣には東方ジャンル、オリジナルジャンルと様々で活躍されている豪華7名を起用。
    ロック、ポップス、テクノ、ファンタジー・民族系など
    様々なジャンルを用い、聴き応え十分な新しい切り口を見せた
    全9曲渾身の一枚となっております!
    【Staff】
    ■Produce
    セブンスヘブンMAXION、Reliance:Tone
    ■Design,Illust.
    MAKI (セブンスヘブンMAXION)
    ■Arrangement
    流歌 (Reliance:Tone)
    ■Vocal
    美里 (Misty)
    やなぎなぎ (CorLeonis)
    Hi-Ne
    流歌
    坂上なち (twinkle*twinkle)
    3L (-3L-)
    桃梨 (リル・プラクティカ)
    ■Lyrics
    MAKI
    やまざきさやか (Sugar Toys)
    桃梨
    ■Violin
    TAM (TAMUSIC)
    ■Guitar Solo
    BB (takrockers!!)
    【曲目】
    01 : 色褪せない夢
       (vo:美里 原曲:東方夢時空 『夢は時空を超えて』 試聴)
    02 : After the rain
       (vo:やなぎなぎ  原曲:東方風神録 『明日ハレの日、ケの昨日』 試聴)
    03 : 欠片
       (vo:Hi-Ne 原曲:東方夢時空 『東方妖恋談』 試聴)
    04 : symmetry(instrumental)
       (原曲:東方風神録 『御柱の墓場~Grave of Being』)
    05 : ast place
       (vo:流歌 原曲:東方地霊殿 『ラストリモート』)
    06 : 星離り、月も離れて
       (vo:坂上なち 原曲:東方永夜抄 『懐かしき東方の血~Old World』)
    07 : mystic river(instrumental)
       (原曲:東方紅魔境 『赤より紅い夢』)
    08 : 追憶のソール
       (vo:3L 原曲:東方地霊殿 『業火マントル』)
    09 : 雷獣
       (vo:桃梨 原曲:東方地霊殿 『廃獄ララバイ』)
    【Link】

  • 《イコルパトス》[例大祭6][セブンスヘブンMAXION][同人音楽][附7BK][TTA]_large

精选评论

直接抱走,没虾想的..........
LZ最高 LZ最高 LZ最高 LZ最高!! 啊空最高!!啊空最高!!啊空最高!!
3Q楼主感谢分享辛苦啦!!!
恩 感谢
....................THX
(CUE)

代码
PERFORMER "セブンスヘブンMAXION"
TITLE "イコルパトス"
FILE "イコルパトス.tta" WAVE
TRACK 01 AUDIO
TITLE "色褪せない夢"
PERFORMER "美里"
FLAGS DCP
INDEX 01 00:00:00
TRACK 02 AUDIO
TITLE "After the rain"
PERFORMER "やなぎなぎ"
FLAGS DCP
INDEX 00 04:05:73
INDEX 01 04:07:73
TRACK 03 AUDIO
TITLE "欠片"
PERFORMER "Hi-Ne"
FLAGS DCP
INDEX 00 09:03:72
INDEX 01 09:05:72
TRACK 04 AUDIO
TITLE "symmetry(instrumental)"
PERFORMER "東方風神録"
FLAGS DCP
INDEX 00 13:45:70
INDEX 01 13:47:70
TRACK 05 AUDIO
TITLE "last place"
PERFORMER "流歌"
FLAGS DCP
INDEX 00 15:31:69
INDEX 01 15:33:69
TRACK 06 AUDIO
TITLE "星離り、月も離れて"
PERFORMER "坂上なち"
FLAGS DCP
INDEX 00 19:00:63
INDEX 01 19:02:63
TRACK 07 AUDIO
TITLE "mystic river(instrumental)"
PERFORMER "東方紅魔境"
FLAGS DCP
INDEX 00 24:32:63
INDEX 01 24:34:63
TRACK 08 AUDIO
TITLE "追憶のソール"
PERFORMER "3L"
FLAGS DCP
INDEX 00 27:14:64
INDEX 01 27:16:63
TRACK 09 AUDIO
TITLE "雷獣"
PERFORMER "桃梨"
FLAGS DCP
INDEX 00 31:43:66
INDEX 01 31:45:66
01和08都很贊啊。。美裡加油啊。。
好喜欢这张。。。非常感谢LZ了