彭佳慧 -《彭佳慧》[APE]

彭佳慧 -《彭佳慧》[APE]
  • 片  名  彭佳慧 -《彭佳慧》[APE]
  • 简  介  音乐风格: 流行发行时间: 1997年04月地区: 台湾语言: 普通话
  • 类  别  音乐
  • 小  类  华语音乐


  • 详细介绍专辑中文名: 彭佳慧别名: 爱到无路可退歌手: 彭佳慧音乐风格: 流行资源格式: APE发行时间: 1997年04月地区: 台湾语言: 普通话简介: 专辑介绍:
    1997年4月推出第二张个人专辑‘彭佳慧’,1997年12月于马来西亚以‘彭佳慧’专辑中之‘爱到无路可退’ 获‘1997中文音乐金曲奖’之‘年度金曲’及‘实力派女歌手’等大赏。
    以上引自官方网站
    他的歌不用多说了,绝对值得下的专辑
    看一直没人分享,自己转了分享给大家
    不固定上线时间,但会尽量上线
    请大家帮忙分流,别太快砍档,别让好歌沉没了
  • 彭佳慧 -《彭佳慧》[APE]_large

精选评论

以防萬一先貼上CUE

REM GENRE Pop
REM DATE 1997
REM DISCID 8F0A9D0A
REM COMMENT "ExactAudioCopy v0.99pb4"
PERFORMER "彭佳慧"
TITLE "爱到无路可退"
FILE "CDImage.ape" WAVE
TRACK 01 AUDIO
TITLE "爱到无路可退"
PERFORMER "彭佳慧"
INDEX 01 00:00:00
TRACK 02 AUDIO
TITLE "为了你"
PERFORMER "彭佳慧"
INDEX 00 05:12:30
INDEX 01 05:13:72
TRACK 03 AUDIO
TITLE "上天眷顾"
PERFORMER "彭佳慧"
INDEX 00 09:42:00
INDEX 01 09:44:35
TRACK 04 AUDIO
TITLE "你可以"
PERFORMER "彭佳慧"
INDEX 01 14:34:47
TRACK 05 AUDIO
TITLE "不够小心"
PERFORMER "彭佳慧"
INDEX 00 18:11:70
INDEX 01 18:14:22
TRACK 06 AUDIO
TITLE "体温"
PERFORMER "彭佳慧"
INDEX 00 22:54:32
INDEX 01 22:56:02
TRACK 07 AUDIO
TITLE "因为我爱你"
PERFORMER "彭佳慧"
INDEX 00 27:11:22
INDEX 01 27:13:62
TRACK 08 AUDIO
TITLE "一偿夙愿"
PERFORMER "彭佳慧"
INDEX 00 31:01:32
INDEX 01 31:04:00
TRACK 09 AUDIO
TITLE "我心属于你"
PERFORMER "彭佳慧"
INDEX 00 35:36:27
INDEX 01 35:38:00
TRACK 10 AUDIO
TITLE "说爱就爱"
PERFORMER "彭佳慧"
INDEX 00 40:31:50
INDEX 01 40:33:47
沙发啊,彭佳慧的歌不错
个人非常喜欢的实力派歌手,尤其是一曲(相见恨晚)百听不厌,多谢楼主分享!
她的歌真的都还算不错!
很不错,俺享受去了
支持港台华语无损资源!!
网络上一直缺这一张专辑!



不是还算不错,是真的很不错!
啊~~~终于找到这张了~~~所有的网上都没这张,我也找这张很久了啊~~
一定要听《爱到无路可退》啊!!!!!!!!!
我听她的第一首歌就是这首
没有源,没有源啊,急死我了…………
多谢楼主分享
大家一起来下吧。。
chao喜欢他,只要还活着就会有新专辑