《Canvas3主題歌》(Canvas3 -Hakugin no Portrait-)[Theme Song Single - この声が届いたら][eufonius][附7BK][TTA]

《Canvas3主題歌》(Canvas3 -Hakugin no Portrait-)[Theme Song Single - この声が届いたら][eufonius][附7BK][TTA]
  • 片  名  《Canvas3主題歌》(Canvas3 -Hakugin no Portrait-)[Theme Song Single - この声が届いたら][eufonius][附7BK][TTA]
  • 简  介  发行时间: 2009年03月18日文字语言: 日文
  • 类  别  动漫
  • 小  类  动漫周边


  • 详细介绍中文名: Canvas3主題歌英文名: Canvas3 -Hakugin no Portrait-别名: Canvas3 ~白銀のポートレート~资源格式: TTA版本: [Theme Song Single - この声が届いたら][eufonius][附7BK]发行时间: 2009年03月18日地区: 日本文字语言: 日文简介: 【簡介】
    主人公・山吹学身为缭乱学园二年级学生,同时又任美术部部长。
    今年的冬天到来了,他正为即将进行的升学选择烦恼不已。学梦想能够继续绘画之路,但是也不一定要成为职业画家。对于在梦想与现实中摇摆不定的学,希望【他能扎实地向前进】的父亲向他提出了一个条件,那就是【如果你在樱花展上取得金奖的话,要追寻梦想也可以】。
    开始着手准备樱花展出展作品的学。有着天才气质的原部长・木通游佐,住在隔壁的青梅竹马・长桥凉,天然系实妹・山吹恋华,冒失的美术老师・千种菜菜美以及恶友・堺悠太。在与这些可以无话不谈的知心朋友度过的时间中,学对于那过高的目标,怎么也无法下笔。
    在那样的时刻,受到观光协会的委托,制作了一份【为了振兴城镇】的小册子。之后因为一件意想不到的事,学园偶像・朝里利奈追寻着学而进入美术部。那就是这个冬天发生的恋爱故事的开端。
    【介紹】
    この声が届いたら/ eufonius メディア: マキシシングルCD
    発売日: 2009/03/18
    # 価格: 1260円(税込)
    * 内容
    人気恋愛アドベンチャーゲーム「canvas」シリーズの最新作「canvas3」の主題歌・エンディングテーマを収録したeufoniusの最新シングル。今回の「この声が届いたら」は、アコースティックギターやストリングス、ピアノなどを中心としたポップで明るく爽快なeufoniusサウンド。
    【Artist/Cast】
    eufonius (アーティスト) riya (作詞者) 
    菊地創 (作曲者)
    【曲目】
    1. この声が届いたら
    2. 星のパルス
    3. この声が届いたら(instrumental)
    4. 星のパルス(instrumental)
  • 《Canvas3主題歌》(Canvas3 -Hakugin no Portrait-)[Theme Song Single - この声が届いたら][eufonius][附7BK][TTA]_large

精选评论

前天已经收MP3版的说,可是没有BK.......
游戏入手玩了下- -实话这系列也素越做越烂= =残念啊
eufonius的歌... 抱走聽聽
不错...收下了...
3Q多谢楼主的分享辛苦辛苦啦Canvas3还不错
Canvas3不知道還有沒有七尾大的作畫呢?不管怎樣,先頂eufonius的歌了!
Canva3啊..........我连Canva1噶游戏和动画都没找到呢........不过Canva2总括来说还可以...不知道3又是如何
wo ye 来抱走
不知3怎么样啊
だすきRIYAの声

mp3+bk
だすきRIYAの声
(http://www.levelup.cn/download/2009/3/2284.shtml)
mp3+bk
REM DISCID 2A045A04
REM COMMENT "ExactAudioCopy v0.99pb4"
PERFORMER "eufonius"
TITLE " この声が届いたら"
FILE "eufonius - この声が届いたら.tta" WAVE
TRACK 01 AUDIO
TITLE " この声が届いたら"
PERFORMER "eufonius"
INDEX 01 00:00:00
TRACK 02 AUDIO
TITLE "星のパルス"
PERFORMER "eufonius"
INDEX 00 04:35:54
INDEX 01 04:38:26
TRACK 03 AUDIO
TITLE " この声が届いたら (Instrumental)"
PERFORMER "eufonius"
INDEX 00 09:16:04
INDEX 01 09:18:49
TRACK 04 AUDIO
TITLE "星のパルス (Instrumental)"
PERFORMER "eufonius"
INDEX 00 13:54:25
INDEX 01 13:56:70