刘德华 -《真经典》环球精选[香港版][APE]

刘德华 -《真经典》环球精选[香港版][APE]
  • 片  名  刘德华 -《真经典》环球精选[香港版][APE]
  • 简  介  Douban3104931:9.4(322 votes)音乐风格: 流行发行时间: 2001年12月21日地区: 香港语言: 粤语
  • 类  别  音乐
  • 小  类  华语音乐


  • 详细介绍简介: 专辑介绍:
      《环球“真经典”系列 - 刘德华》,共收录了16首刘德华的经典歌曲,包括“不需要爱情”、“可不可以”及“城市猎人”等……
      又是宝艺星无数华仔炒冷饭精选的其中之一,来回就那么几首歌,没有任何创新……
      华仔的宝艺星演唱过的歌曲其实也不少了,有几张国语专辑也很经典,不知道为什么宝艺星总是发行一些化妆粤语歌,而且来回都是那么几首,一点都没有诚意……
      如果各位收宝艺星精选的话建议收一张就够了,因为歌曲都基本相同,没必要重复浪费,当然如果您打算收华仔全集的话还是要出一张买一张的……可怜的Money……
      感谢“小K”同学的原创专辑介绍……
  • 刘德华 -《真经典》环球精选[香港版][APE]_large

精选评论

Exact Audio Copy V0.99 prebeta 5 from 4. May 2009

EAC 抓取日志文件从20. 四月 2010, 19:20

劉德華 / 真經典

使用驱动器 :TSSTcorpCDDVDW TS-H653F Adapter: 4 ID: 0

读取模式 : 保护
使用精确流 : 是
废除音频缓冲 : 是
使用 C2 指针 : 否

读取偏移校正 : 0
读取 Lead-In 和 Lead-Out : 否
用静音填充抓取中丢失偏移的采样 : 是
去除首尾静音块 : 否
在 CRC 计算中使用了空样本 : 是
已用接口 : Win NT 及 2000 本地 Win32 接口

所用输出格式 : 内部 WAV 函数
样本格式 : 44.100 Hz;16 Bit;立体声


被抓轨 CD 的 TOC

音轨 | 开始 | 长度 | 起始扇区 | 结尾扇区
--------------------------------------------------
1 | 0:00.00 | 4:03.00 | 0 | 18224
2 | 4:03.00 | 4:16.62 | 18225 | 37486
3 | 8:19.62 | 4:45.50 | 37487 | 58911
4 | 13:05.37 | 5:08.50 | 58912 | 82061
5 | 18:14.12 | 3:52.63 | 82062 | 99524
6 | 22:07.00 | 4:42.37 | 99525 | 120711
7 | 26:49.37 | 4:05.00 | 120712 | 139086
8 | 30:54.37 | 4:13.25 | 139087 | 158086
9 | 35:07.62 | 3:54.50 | 158087 | 175686
10 | 39:02.37 | 3:48.38 | 175687 | 192824
11 | 42:51.00 | 4:44.12 | 192825 | 214136
12 | 47:35.12 | 4:14.63 | 214137 | 233249
13 | 51:50.00 | 4:34.50 | 233250 | 253849
14 | 56:24.50 | 4:39.62 | 253850 | 274836
15 | 61:04.37 | 4:00.20 | 274837 | 292856
16 | 65:04.57 | 4:34.68 | 292857 | 313474


范围状态及错误

已选择范围

文件名 C:Documents and SettingsAdministratorMy Documents真經典劉德華 - 真經典.wav

峰值电平 99.4 %
范围质量 99.9 %
复制 CRC E44A6E69
复制成功

没有错误发生

状态报告结尾