陈晓东 -《风一样的男子》[APE]

陈晓东 -《风一样的男子》[APE]
  • 片  名  陈晓东 -《风一样的男子》[APE]
  • 简  介  音乐风格: 流行发行时间: 1998年06月地区: 台湾语言: 普通话
  • 类  别  音乐
  • 小  类  华语音乐


  • 详细介绍简介: 专辑介绍:
    在他这张全新大碟封面中,我们可以清楚地看到他一身健康的黑色,但不知何故,在台版CD封面中,却仍选用了他洁白肤色的相片,也许因为还不想打破他在台湾人心中的纯情男生形象吧。
    至于唱片的歌曲方面,仍是一贯的路线:一首主打跳舞作品“特务”加情深男生式的歌曲“风一样的男子”。值得一提的是轻松幽默的“最佳男朋友”,如果您是一位男生,因为有很多女生喜欢您而遭到女友吃醋的话,立刻学会这首歌曲并唱给她听“你不用吃醋了,我是最佳男朋友,因为我出色所以她们对我好,你要以自己为骄傲”。
    转自ukoo音乐论坛,感谢原作者
  • 陈晓东 -《风一样的男子》[APE]_large

精选评论

V0.99 prebeta 4 from 23. January 2008

EAC 抓取日志档案从24. 四月 2009, 3:46

陈晓东 (Daniel Chan) / 风一样的男子

使用光碟机 :_NEC DVD_RW ND-3540A Adapter: 4 ID: 0

读取模式 : :
: 是
: 否
: 否

读取错误修正: : 0
读取 Lead-In 和 Lead-Out : 否
用静音填充抓取中丢失偏移的取样 : 是
去除首尾静音区块 : 否
: 否
: 已安装外部 ASPI 介面

所用输出模式: : Monkey's Audio Lossless Encoder
: High Lossless Compression
: 高
: 是
: C:Program FilesExact Audio Copymac.exe




| | | |
--------------------------------------------
1 | 0:00.00 | 4:08.30 | 0 | 18629
2 | 4:08.30 | 4:22.07 | 18630 | 38286
3 | 8:30.37 | 4:42.30 | 38287 | 59466
4 | 13:12.67 | 3:50.60 | 59467 | 76776
5 | 17:03.52 | 4:23.00 | 76777 | 96501
6 | 21:26.52 | 4:57.23 | 96502 | 118799
7 | 26:24.00 | 3:30.30 | 118800 | 134579
8 | 29:54.30 | 4:13.25 | 134580 | 153579
9 | 34:07.55 | 3:53.10 | 153580 | 171064
10 | 38:00.65 | 4:07.52 | 171065 | 189641


范围状态及错误

已选择范围

档案名称 I:cdimage.wav

峰值电平 100.0 %
范围质量 100.0 %
复制 CRC A2851C3A
复制完成

没有错误发生

状态报告结尾
一直觉得他好像很深情的样子
老专辑了支持一下,呵呵以前刚开始那会比较喜欢《比我幸福》《天亮说晚安》这两套专辑
谢谢 这张无损找了好久哦
希望能收全他的无损全集。。多谢lz了。。
多谢楼主,支持!
听他唱歌
很舒服
哦 这张专辑我小时候买的还是磁带 陪我走过了那么多的岁月 陈晓东的歌是我学生时代最写意的回忆 这张专辑里面的 为我多留一夜 至今还是我最爱的中文歌之一 论旋律 论唱功 他不输任何男歌手 好期盼听到他的新作品 不过这几年他出新唱片的速度真的好慢 似乎渐渐的淡出歌坛了 去年出的粤语新专辑很不错 但国语专辑似乎商业化了一些 也不太了解卖得怎么样 希望以后还会为我们带来温馨的惊喜
我是为了这张cd特意登陆的。。。好东西
好棒的歌手
輕佻, 特務 好
经典好东西, 多谢楼主分享
收下了!!!