《死刑判决原声集》(NEEDLESS)[TVA OST][+2scans][FLAC]

《死刑判决原声集》(NEEDLESS)[TVA OST][+2scans][FLAC]
  • 片  名  《死刑判决原声集》(NEEDLESS)[TVA OST][+2scans][FLAC]
  • 简  介  发行时间: 2009年12月23日对白语言: 日语文字语言: 日文
  • 类  别  动漫
  • 小  类  动漫周边


  • 详细介绍简介: 【故事简介】
    2130年,因为第三次世界大战,日本各地出现了被称为“BS”的巨大污染区域,不知从什么时候起,在那荒凉的陆地上出现了住民,虽然他们被城里的人当做是“无用者”,但是他们当中有着具有特异能力的人,火、风、重力,人们把这些具有超自然力量的人敬畏地称为——NEEDLESS!
    【专辑介绍】
    NEEDLESS Original Soundtrack
    アニメサントラ 商品番号 LASA-5032
    メディア アルバム CD
    組枚数 1
    価格 3000円(税込)
    発売日 2009/12/23
    内容
    TVアニメ『NEEDLESS』のオリジナルサウンドトラック。音楽は加藤達也が担当。バトルアクションだけでは終わらない! ギャグ有り、萌えあり、涙も愛もつまった『NEEDLESS』の世界を盛り上げるサウンド集は必聴!
    【Artist/Cast】
    梔(茅原実里) (アーティスト) 美郷あき (アーティスト)
    ディスク(加藤英美里) (アーティスト) Gargoyle (アーティスト)
    セツナ(後藤沙緒里) (アーティスト) GRANRODEO (アーティスト)
    クルス(遠藤綾) (アーティスト) 未央(牧野由依) (アーティスト)
    イヴ(喜多村英梨) (アーティスト)
    【收录曲目】
    1 modern strange cowboy[TV-SIZE] GRANRODEO
    2 BLACK SPOT TVサントラ
    3 Cogwheel that begins to move TVサントラ
    4 Enemy's shadow TVサントラ
    5 Wound TVサントラ
    6 Desperation TVサントラ
    7 Sortie preparation TVサントラ
    8 Combat TVサントラ
    9 The secrets TVサントラ
    10 Geniality TVサントラ
    11 Darkness TVサントラ
    12 Repose TVサントラ
    13 Crisis TVサントラ
    14 Perplexity TVサントラ
    15 Scarlet Bomb![TV-SIZE] 美郷あき
    16 Vice TVサントラ
    17 Flood of tears TVサントラ
    18 Girl force TVサントラ
    19 Trap TVサントラ
    20 Aggressive zone[TV-SIZE] イヴ(喜多村英梨)
    21 Truth TVサントラ
    22 The saviour TVサントラ
    23 Rescue TVサントラ
    24 God of death TVサントラ
    25 死に至る傷 Gargoyle
    26 Impulse TVサントラ
    27 Plot TVサントラ
    28 Bloodred conflict TVサントラ
    29 マグマキッド Gargoyle
    30 Cause for confront TVサントラ
    31 Lovely TVサントラ
    32 NEEDLESS TVサントラ
    33 WANTED! for the love[TV-SIZE] イヴ(喜多村英梨)
  • 《死刑判决原声集》(NEEDLESS)[TVA OST][+2scans][FLAC]_large

精选评论

某南宫小可问偶要的玩意- -因为该物动画还米时间看- -所以偶也不好多做评论了
真是大收获呢
没想到能收到无损
很高兴的说
啊 这个原声很热血的啊
手写的CUE
REM GENRE Anime
REM DATE 2009
REM DISCID 6911912B
REM COMMENT "ExactAudioCopy v0.99pb5"
PERFORMER "Various"
TITLE "NEEDLESS Original Soundtrack"
FILE "01 - modern strange cowboy [TV-SIZE].flac" WAVE
TRACK 01 AUDIO
TITLE "modern strange cowboy [TV-SIZE]"
PERFORMER " "
INDEX 01 00:00:00
FILE "02 - BLACK SPOT.flac" WAVE
TRACK 02 AUDIO
TITLE "BLACK SPOT"
PERFORMER " "
INDEX 01 00:00:00
FILE "03 - Cogwheel that begins to move.flac" WAVE
TRACK 03 AUDIO
TITLE "Cogwheel that begins to move"
PERFORMER " "
INDEX 01 00:00:00
FILE "04 - Enemy's Shadow.flac" WAVE
TRACK 04 AUDIO
TITLE "Enemy's Shadow"
PERFORMER " "
INDEX 01 00:00:00
FILE "05 - Wound.flac" WAVE
TRACK 05 AUDIO
TITLE "Wound"
PERFORMER " "
INDEX 01 00:00:00
FILE "06 - Desperation.flac" WAVE
TRACK 06 AUDIO
TITLE "Desperation"
PERFORMER " "
INDEX 01 00:00:00
FILE "07 - Sortie preparation.flac" WAVE
TRACK 07 AUDIO
TITLE "Sortie preparation"
PERFORMER " "
INDEX 01 00:00:00
FILE "08 - Combat.flac" WAVE
TRACK 08 AUDIO
TITLE "Combat"
PERFORMER " "
INDEX 01 00:00:00
FILE "09 - The secrets.flac" WAVE
TRACK 09 AUDIO
TITLE "The secrets"
PERFORMER " "
INDEX 01 00:00:00
FILE "10 - Geniality.flac" WAVE
TRACK 10 AUDIO
TITLE "Geniality"
PERFORMER " "
INDEX 01 00:00:00
FILE "11 - Darkness.flac" WAVE
TRACK 11 AUDIO
TITLE "Darkness"
PERFORMER " "
INDEX 01 00:00:00
FILE "12 - Repose.flac" WAVE
TRACK 12 AUDIO
TITLE "Repose"
PERFORMER " "
INDEX 01 00:00:00
FILE "13 - Crisis.flac" WAVE
TRACK 13 AUDIO
TITLE "Crisis"
PERFORMER " "
INDEX 01 00:00:00
FILE "14 - Perplexity.flac" WAVE
TRACK 14 AUDIO
TITLE "Perplexity"
PERFORMER " "
INDEX 01 00:00:00
FILE "15 - Scarlet Bomb! [TV-SIZE].flac" WAVE
TRACK 15 AUDIO
TITLE "Scarlet Bomb! [TV-SIZE]"
PERFORMER " "
INDEX 01 00:00:00
FILE "16 - Vice.flac" WAVE
TRACK 16 AUDIO
TITLE "Vice"
PERFORMER " "
INDEX 01 00:00:00
FILE "17 - Flood of tears.flac" WAVE
TRACK 17 AUDIO
TITLE "Flood of tears"
PERFORMER " "
INDEX 01 00:00:00
FILE "18 - Girl force.flac" WAVE
TRACK 18 AUDIO
TITLE "Girl force"
PERFORMER " "
INDEX 01 00:00:00
FILE "19 - Trap.flac" WAVE
TRACK 19 AUDIO
TITLE "Trap"
PERFORMER " "
INDEX 01 00:00:00
FILE "20 - Aggressive zone [TV-SIZE].flac" WAVE
TRACK 20 AUDIO
TITLE "Aggressive zone [TV-SIZE]"
PERFORMER " "
INDEX 01 00:00:00
FILE "21 - Truth.flac" WAVE
TRACK 21 AUDIO
TITLE "Truth"
PERFORMER " "
INDEX 01 00:00:00
FILE "22 - The saviour.flac" WAVE
TRACK 22 AUDIO
TITLE "The saviour"
PERFORMER " "
INDEX 01 00:00:00
FILE "23 - Rescue.flac" WAVE
TRACK 23 AUDIO
TITLE "Rescue"
PERFORMER " "
INDEX 01 00:00:00
FILE "24 - God of death.flac" WAVE
TRACK 24 AUDIO
TITLE "God of death"
PERFORMER " "
INDEX 00 02:05:22
INDEX 01 00:00:00
FILE "25 - Fatal wound.flac" WAVE
TRACK 25 AUDIO
TITLE "Fatal wound"
PERFORMER " "
INDEX 01 00:00:00
FILE "26 - Impulse.flac" WAVE
TRACK 26 AUDIO
TITLE "Impulse"
PERFORMER " "
INDEX 01 00:00:00
FILE "27 - Plot.flac" WAVE
TRACK 27 AUDIO
TITLE "Plot"
PERFORMER " "
INDEX 01 00:00:00
FILE "28 - Bloodred conflict.flac" WAVE
TRACK 28 AUDIO
TITLE "Bloodred conflict"
PERFORMER " "
INDEX 01 00:00:00
FILE "29 - Magma kid.flac" WAVE
TRACK 29 AUDIO
TITLE "Magma kid"
PERFORMER " "
INDEX 01 00:00:00
FILE "30 - Cause for conflict.flac" WAVE
TRACK 30 AUDIO
TITLE "Cause for conflict"
PERFORMER " "
INDEX 01 00:00:00
FILE "31 - Lovely.flac" WAVE
TRACK 31 AUDIO
TITLE "Lovely"
PERFORMER " "
INDEX 01 00:00:00
FILE "32 - NEEDLESS.flac" WAVE
TRACK 32 AUDIO
TITLE "NEEDLESS"
PERFORMER " "
INDEX 01 00:00:00
FILE "33 - WANTED! for the love [TV-SIZE].flac" WAVE
TRACK 33 AUDIO
TITLE "WANTED! for the love [TV-SIZE]"
PERFORMER " "
INDEX 01 00:00:00