李尤&李绍继 -《情歌真空管⑧》[DSD][APE]

李尤&李绍继 -《情歌真空管⑧》[DSD][APE]
  • 片  名  李尤&李绍继 -《情歌真空管⑧》[DSD][APE]
  • 简  介  Douban3024287:8.6(22 votes)音乐风格: 流行发行时间: 2008年12月12日地区: 大陆语言: 普通话
  • 类  别  音乐
  • 小  类  华语音乐


  • 详细介绍简介: 发行公司:广东火烈鸟文化发展有限公司
    出版公司:深圳音像公司
    ISRC:CN-F29-08-340-00/A.J6
    专辑介绍:
    这是一次崭新的尝试,在此表现了不同以往的情歌风貌。
    这是一张具有平衡之美的专辑。十三首歌曲力求在急与缓、
    淡与浓之间达到和谐与统一。那些音符的后面正是自在跳动
    着的一颗平常心——在这个物欲横流的时代,有谁知道,
    保有一颗只为音乐平常心是多么的难得。
    这是一张返璞归真的专辑。无论时代怎样变化,
    无论环境怎样改变,有些东西是不会变的。对于《情歌真空管》
    来说,那一向意味着这样的词语——简单、纯粹、勇敢、希望、
    真诚……而在专辑中不过是化为了最直接的行为:用心歌唱,一味的情歌。
    如此能渲染情绪的两把声音,诠释起情歌来总是格外动人。
    他们所唱的每一首歌,不管是表白的、安慰的、伤情回忆的、
    温暖甜蜜的……每一首歌,不管唱着什么样的感情,都美得像首诗。
  • 李尤&李绍继 -《情歌真空管⑧》[DSD][APE]_large

精选评论

PERFORMER "李尤 李绍继"
TITLE "情歌真空管⑧"
REM GENRE pop
REM DATE 2008年12月12日
FILE "李尤&李绍继.-.[情歌真空管⑧].专辑.(ape).ape" WAVE
TRACK 01 AUDIO
TITLE "01 你最珍贵"
PERFORMER "李尤 李绍继"
INDEX 01 00:00:00
TRACK 02 AUDIO
TITLE "02 有一点动心"
PERFORMER "李尤 李绍继"
REM REPLAYGAIN_TRACK_GAIN -8.93 dB
REM REPLAYGAIN_TRACK_PEAK 0.996826
INDEX 00 04:29:10
INDEX 01 04:31:10
TRACK 03 AUDIO
TITLE "03 在雨中"
PERFORMER "李尤 李绍继"
INDEX 00 08:22:28
INDEX 01 08:24:28
TRACK 04 AUDIO
TITLE "04 在我生命中的每一天"
PERFORMER "李尤 李绍继"
INDEX 00 13:28:23
INDEX 01 13:30:23
TRACK 05 AUDIO
TITLE "05 我悄悄的蒙上你的眼睛"
PERFORMER "李尤 李绍继"
INDEX 00 17:19:30
INDEX 01 17:21:30
TRACK 06 AUDIO
TITLE "06 一路上有你"
PERFORMER "李尤 李绍继"
INDEX 00 21:18:60
INDEX 01 21:20:60
TRACK 07 AUDIO
TITLE "07 现代爱情故事"
PERFORMER "李尤 李绍继"
INDEX 00 26:40:30
INDEX 01 26:42:30
TRACK 08 AUDIO
TITLE "08 好人好梦"
PERFORMER "李尤 李绍继"
INDEX 00 31:27:33
INDEX 01 31:29:33
TRACK 09 AUDIO
TITLE "09 迟来的爱"
PERFORMER "李尤 李绍继"
INDEX 00 36:23:34
INDEX 01 36:25:34
TRACK 10 AUDIO
TITLE "10 祈祷"
PERFORMER "李尤 李绍继"
INDEX 00 41:24:09
INDEX 01 41:26:09
TRACK 11 AUDIO
TITLE "11 哪里的天空不下雨"
PERFORMER "李尤 李绍继"
INDEX 00 45:30:47
INDEX 01 45:32:47
TRACK 12 AUDIO
TITLE "12 屋顶"
PERFORMER "李尤 李绍继"
INDEX 00 49:48:15
INDEX 01 49:50:15
TRACK 13 AUDIO
TITLE "13 读你"
PERFORMER "李尤 李绍继"
INDEX 00 55:11:11
INDEX 01 55:13:10



这个我用foobar2000.exe是可以打开了。文件名请在这里复制: 李尤&李绍继.-.[情歌真空管⑧].专辑.(ape).cue
强力支持!!!楼主辛苦了....
最近下不少.心存感激.谢谢分享.
最新专辑吗?
支持!!!
当年广州乐坛强力主打的两位歌手,现在也只能出这种翻唱专辑,真是让人感到凄凉
支持发贴
没源呀,昨天到现在一直都不动
很不错,蛮好听的尤其曲首的独白很不错

速度也很快啊

楼主人体贴人心!
谢谢!
cue不能用,请问有什么解决办法吗

如果你是用千千静听,应该是可以用的。
如果你是用foobar2000,那就自己做个CUE文件:
1.先把APE文件转换成WAV文件,再把WAV文件导入EAC软件,生成的CUE 文件就可以放到foobar2000听了。
楼主辛苦了,等下我按你的方法试试看,音量很大,看波形好象是削顶了.