周国贤 -《同名EP》第二版[FLAC]

周国贤 -《同名EP》第二版[FLAC]
  • 片  名  周国贤 -《同名EP》第二版[FLAC]
  • 简  介  音乐风格: 摇滚发行时间: 2004年04月17日地区: 香港语言: 普通话,粤语
  • 类  别  音乐
  • 小  类  华语音乐


  • 详细介绍专辑中文名: 同名EP歌手: 周国贤音乐风格: 摇滚资源格式: FLAC版本: 第二版发行时间: 2004年04月17日地区: 香港语言: 普通话,粤语简介: 专辑介绍:
    华纳力捧的新人周国贤(Endy)首张同名EP继推出以来,获得一致好评,现加推全新包装第二版
    Endy一进入乐坛便公开已婚身分,并育有一女,有如此背景,令他一出道即引起各界的注意,是香港鲜有的乐坛新人。
    Endy音乐才华洋溢,包办作曲填词弹奏,走偶实力派路线,第一主打「物极必反」更是略带点Rock的中快版曲,此外「逃避」、「目黑」等较为有别於主流 POP乐坛的音乐,今回诚意推荐由Endy与另一位华纳新星薛凯琪 (Fiona)合唱版之「目黑」,大家快来认识这位乐坛新晋歌手—周国贤(Endy)吧!
    分享团队:91TING.COM音乐社区- 卅没送
  • 周国贤 -《同名EP》第二版[FLAC]_large

精选评论

PERFORMER "周國賢"
TITLE "周國賢同名Ep"
FILE "周国贤.-.[同名EP].专辑.(flac).flac" WAVE
TRACK 01 AUDIO
PERFORMER "周國賢"
TITLE "逃避"
REM GENRE Rock
REM DATE 2004
INDEX 01 00:00:00
TRACK 02 AUDIO
PERFORMER "周國賢"
TITLE "14天"
REM GENRE Rock
REM DATE 2004
INDEX 01 03:40:64
TRACK 03 AUDIO
PERFORMER "周國賢"
TITLE "好世代!!!"
REM GENRE Rock
REM DATE 2004
INDEX 01 07:57:49
TRACK 04 AUDIO
PERFORMER "周國賢"
TITLE "目黑"
REM GENRE Rock
REM DATE 2004
INDEX 01 10:57:07
TRACK 05 AUDIO
PERFORMER "周國賢"
TITLE "物極必反"
REM GENRE Rock
REM DATE 2004
INDEX 01 14:13:67
TRACK 06 AUDIO
PERFORMER "周國賢"
TITLE "第一次"
REM GENRE Rock
REM DATE 2004
INDEX 01 18:45:68
TRACK 07 AUDIO
PERFORMER "周國賢"
TITLE "委屈"
REM GENRE Rock
REM DATE 2004
INDEX 01 22:21:27
TRACK 08 AUDIO
PERFORMER "周國賢"
TITLE "天下無敵"
REM GENRE Rock
REM DATE 2004
INDEX 01 25:15:69
TRACK 09 AUDIO
PERFORMER "周國賢"
TITLE "目黑(合唱版)"
REM GENRE Rock
REM DATE 2004
INDEX 01 28:38:07
TRACK 10 AUDIO
PERFORMER "周國賢"
TITLE "那一天 (14天國語版)"
REM GENRE Rock
REM DATE 2004
INDEX 01 31:55:02
新人辈出!
这张专辑我买了3张。。。。。。。
现在难得那么好听的粤语歌,可惜这么少的人下。