佐桥俊彦 (SAHASHI TOSHIHIKO) & LONDON SYMPHONY ORCHESTRA -《Mobile Suits Gundam Seed Destiny The SYMPHONY》[APE]

佐桥俊彦 (SAHASHI TOSHIHIKO) & LONDON SYMPHONY ORCHESTRA -《Mobile Suits Gundam Seed Destiny The SYMPHONY》[APE]
  • 片  名  佐桥俊彦 (SAHASHI TOSHIHIKO) & LONDON SYMPHONY ORCHESTRA -《Mobile Suits Gundam Seed Destiny The SYMPHONY》[APE]
  • 简  介  发行时间: 2005年12月16日
  • 类  别  音乐
  • 小  类  原声音乐


  • 详细介绍专辑中文名: Mobile Suits Gundam Seed Destiny The SYMPHONY艺术家: 佐桥俊彦 (SAHASHI TOSHIHIKO)
    LONDON SYMPHONY ORCHESTRA资源格式: APE发行时间: 2005年12月16日地区: 日本语言: 日语简介:
    专辑介绍:
    交响组曲 机动戦士ガンダムSEED DESTINY
    アニメ (音楽: 佐桥俊彦/ロンドンシンフォニーオーケストラ)
    * 商品番号: VICL-61830
    * メディア: アルバムCD
    * 组枚数: 1
    * 発売日: 2005/12/16
    * 価格: 3150円(税込)
    * アーティスト/ キャスト
    ロンドン・シンフォニー・オーケストラ (演奏者)  佐桥俊彦 (作曲者) 
    * 内容
    スターウォーズ、ハリーポッターなどの音楽を手掛け、数々のグラミー赏を受赏している世界最高峰のオーケストラと机动戦士ガンダムSEEDシリーズのコラボレートが再び実现 平井久司描き下ろしジャケット。
    追加介绍:
    不管种命如何的烂,冲着LONDON SYMPHONY ORCHESTRA这牌子
    这张碟一定要听!!
    AMSU分享组提供›
  • 佐桥俊彦 (SAHASHI TOSHIHIKO) & LONDON SYMPHONY ORCHESTRA -《Mobile Suits Gundam Seed Destiny The SYMPHONY》[APE]_large

精选评论

救命!CUE文件不能正常播放!!
必须要有flac插件的播放器才能播放。推荐foobar2000

伦敦交响乐团演奏得太棒了,听到最后我真的能感觉到雷雨后阳光从云层中穿透下来,清风佛过ORB的海岸,摇曳的花朵。这才是真正的和平。不过还是有微微不稳定的感觉。
没有速度,请有源的朋友做下种吧,话说交响果然不受待见的说
贴个cue,楼主的cue好像在中国国内的机器上打开有错误。下载后把以下的内容粘到记事本,另存成ANSI格式,随便取个名字就可以了。



PERFORMER "佐桥俊彦/ロンドンシンフォニーオーケストラ"
TITLE "SEED DESTINY"
FILE "CDImage.flac" WAVE
TRACK 01 AUDIO
TITLE "1. Opening 第一章 运命の扉开かれる刻"
PERFORMER "佐桥俊彦/ロンドンシンフォニーオーケストラ"
INDEX 01 00:00:00
TRACK 02 AUDIO
TITLE "2. Brand New Days 第二章 示された世界と约束"
PERFORMER "佐桥俊彦/ロンドンシンフォニーオーケストラ"
INDEX 00 05:44:31
INDEX 01 05:46:65
TRACK 03 AUDIO
TITLE "3. Battle in the Space 第三章 戦火散り咲く漆黒の空"
PERFORMER "佐桥俊彦/ロンドンシンフォニーオーケストラ"
INDEX 00 09:45:58
INDEX 01 09:48:18
TRACK 04 AUDIO
TITLE "4. The Shadow of his mind 第四章 正义で涂られた罪の在処"
PERFORMER "佐桥俊彦/ロンドンシンフォニーオーケストラ"
INDEX 00 13:59:54
INDEX 01 14:02:13
TRACK 05 AUDIO
TITLE "5. War 第五章 苍天に揺れる剣と叫び"
PERFORMER "佐桥俊彦/ロンドンシンフォニーオーケストラ"
INDEX 00 17:13:56
INDEX 01 17:16:15
TRACK 06 AUDIO
TITLE "6. SINN ASUKA 第六章 切り裂かれた想いと苦悩の瞳"
PERFORMER "佐桥俊彦/ロンドンシンフォニーオーケストラ"
INDEX 00 21:46:59
INDEX 01 21:49:20
TRACK 07 AUDIO
TITLE "7. Spaceship MINERV 第七章 聡明なる女神の舰"
PERFORMER "佐桥俊彦/ロンドンシンフォニーオーケストラ"
INDEX 00 25:33:06
INDEX 01 25:35:40
TRACK 08 AUDIO
TITLE "8. ORB 第八章 剣无き黄昏の大地"
PERFORMER "佐桥俊彦/ロンドンシンフォニーオーケストラ"
INDEX 00 28:25:32
INDEX 01 28:27:68
TRACK 09 AUDIO
TITLE "9. Shyer Soldier 第九章 自由という名の孤独"
PERFORMER "佐桥俊彦/ロンドンシンフォニーオーケストラ"
INDEX 00 31:55:36
INDEX 01 31:57:73
TRACK 10 AUDIO
TITLE "10. STELLAR 第十章 哀しみに沉む刹那の揺り笼"
PERFORMER "佐桥俊彦/ロンドンシンフォニーオーケストラ"
INDEX 00 35:24:59
INDEX 01 35:28:18
TRACK 11 AUDIO
TITLE "11. After the glory 第十一章 迷える翼に选ばれし明日"
PERFORMER "佐桥俊彦/ロンドンシンフォニーオーケストラ"
INDEX 00 39:26:07
INDEX 01 39:28:08
TRACK 12 AUDIO
TITLE "12. Finale 第十二章 新しき世界が知る混迷の未来"
PERFORMER "佐桥俊彦/ロンドンシンフォニーオーケストラ"
INDEX 00 44:03:60
INDEX 01 44:05:25
供源啊!!!!下不动啦!!!!!!
卡在85%了,帮帮忙,谁能做下种?谢谢了