卓依婷 -《蝴蝶情事I》[APE]

卓依婷 -《蝴蝶情事I》[APE]
  • 片  名  卓依婷 -《蝴蝶情事I》[APE]
  • 简  介  发行时间: 1999年地区: 大陆语言: 普通话
  • 类  别  音乐
  • 小  类  华语音乐


  • 详细介绍专辑中文名: 蝴蝶情事I歌手: 卓依婷资源格式: APE发行时间: 1999年地区: 大陆语言: 普通话简介:
    专辑简介:
    《卓依婷 蝴蝶情事》在音乐制作上,唱片着重歌手的表现及音乐的品质,巧妙地配合大自然音效如一流的水声、风声、虫鸣等,还有特殊的“配方”--效果音色、环绕音场设计等,在适当时机美化音乐气氛,增加情境感染力;另一方面也注意不过分强调音效,以免喧宾夺主、弄巧成拙,在听觉感受上,追求的是舒适、平衡、耐听、不油不腻,重视音乐本身的真实性.
    真正的歌曲精品可以跨越时空,人们至纯至美的艺术享受和心灵陶冶。
    卓依婷这位从中国大陆,台湾及东南亚脱颖而出,而为百万唱将的实力派歌手,将跨越四海,带进亚洲最经典歌曲,我们称它们是百唱不厌的歌,由海丽集团歌海采珠,艺苑品酩,精心筹备已久的经典歌曲,是对广大歌迷的真诚奉献。
  • 卓依婷 -《蝴蝶情事I》[APE]_large

精选评论

很好听,可惜不是DTS的
ape已经很好了
LZ没有源了啊!我下到98%死都不动了!麻烦再开一下!!
PERFORMER "卓依婷"
FILE "卓依婷.-.[蝴蝶情事I].专辑.(ape).ape" WAVE
TRACK 01 AUDIO
PERFORMER "卓依婷"
TITLE "永远是朋友"
INDEX 01 00:00:00
TRACK 02 AUDIO
PERFORMER "卓依婷"
TITLE "潮湿的心"
INDEX 01 04:08:38
TRACK 03 AUDIO
PERFORMER "卓依婷"
TITLE "潇洒走一回"
INDEX 01 09:07:74
TRACK 04 AUDIO
PERFORMER "卓依婷"
TITLE "你看你看月亮的脸"
INDEX 01 13:08:58
TRACK 05 AUDIO
PERFORMER "卓依婷"
TITLE "曾经心疼"
INDEX 01 17:43:15
TRACK 06 AUDIO
PERFORMER "卓依婷"
TITLE "心雨"
INDEX 01 22:12:10
TRACK 07 AUDIO
TITLE "风中有朵雨做的云"
INDEX 01 27:37:32
TRACK 08 AUDIO
PERFORMER "卓依婷"
TITLE "萍聚"
INDEX 01 32:00:52
TRACK 09 AUDIO
PERFORMER "卓依婷"
TITLE "千年等一回"
INDEX 01 35:20:12
TRACK 10 AUDIO
PERFORMER "卓依婷"
TITLE "谁的眼泪的在飞"
INDEX 01 38:50:22
TRACK 11 AUDIO
PERFORMER "卓依婷"
TITLE "无声的雨"
INDEX 01 44:02:42
TRACK 12 AUDIO
PERFORMER "卓依婷"
TITLE "迟来的爱"
INDEX 01 48:31:39
谢谢楼主的分享和提供CUE的朋友!
请留意本MV专区和卓依婷专区:
http://www.VeryCD.com/groups/timi



【卓依婷高清MV下载 】- 群

群号码:28035205
欢迎推荐朋友一起加入!
MTV下载地址请进入本QQ群空间:http://group.qq.com/group_index.html?groupid=28035205
感谢楼主带来这么好的专辑!下载收藏!
感谢楼主分享!辛苦了,多谢!
顶一下
有没有更多她的专辑啊
全收藏了,谢谢分享。
支持,,,谢谢..
这张很好,谢谢。