Celine Dion -《谈情说爱》(Let's talk about love)[APE]

Celine Dion -《谈情说爱》(Let's talk about love)[APE]
  • 片  名  Celine Dion -《谈情说爱》(Let's talk about love)[APE]
  • 简  介  发行时间: 1997年地区: 加拿大语言: 英语
  • 类  别  音乐
  • 小  类  欧美音乐


  • 详细介绍专辑英文名: Let s talk about love专辑中文名: 谈情说爱歌手: Celine Dion资源格式: APE发行时间: 1997年地区: 加拿大语言: 英语简介:
    专辑介绍:
    1997年她发行了专辑“Let s Talk About Love”, 这张专辑收集了十五首席琳的精彩歌曲。很清楚,席琳已经引起了整个音乐界的注意,她的专辑“Let s Talk About Love”则把这种注意带到了这张收录有不凡演唱的的流行乐专辑。这张专辑分别曾在伦敦、纽约、洛杉矶等地录音,因为这样, “Let s Talk About Love”集合了一群特别的、伟大的歌手、作曲家和监制。
    一首为电影《Titanic(泰塔尼克号)》演唱的主题曲“My Heart Will Go On”再次轰动全球。她与 Bee Gees 乐队合作的“Immortality”以及与 R.Kelly 合作的“I m Your Angel”也成为世界范围内的金曲。
    “Tell Him”是这张专辑的第一首歌曲,是和芭芭拉.史翠珊一起的二重唱。这个惊人的合作在1997年学术音乐颁奖会后这首曲子创意会议上产生的。 这两个非凡的嗓音汇合到一起,一定能感动听这首曲子的人。
    “Immortality”,由Barry Gibb和BeeGees一同撰写。BeeGees 甚至还为这首美妙的、能感动许多人的心的歌唱和音部分。这首歌是由Walter A. 在纽约城里监制的。
    “I Hate You Then I Love You”是60年代意大利的超级明星Tony Renis演唱的、在世界上风行一时的歌曲。在这张专辑里,“I Hate You Then I Love You”由席琳和意大利歌星Luciano Pavarotti两人非凡的嗓音再度演唱出来,同样是那么地出色。
    Thank peculaNT for sharing
  • Celine Dion -《谈情说爱》(Let's talk about love)[APE]_large

精选评论

我刚下完了,播放时CUE错误只能整张碟听,不能选歌
cue自己改下就可以了
怎么改cue?谢谢
把二个文件名,改成相同的即可。
谢谢分享!!
喜欢,非常不错的cd
谢谢LZ分享 很不错
cue需要改一下就好了
REM GENRE Pop
REM DATE 1998
REM DISCID EB117B10
REM COMMENT "ExactAudioCopy v0.95b2"
PERFORMER "Celine Dion"
TITLE "Let's Talk About Love"
FILE "CDImage.ape" WAVE
TRACK 01 AUDIO
TITLE "The Reason"
PERFORMER "Celine Dion"
ISRC CAC229700114
INDEX 01 00:00:00
TRACK 02 AUDIO
TITLE "Immortality"
PERFORMER "Celine Dion"
ISRC CAC229700105
INDEX 00 05:00:20
INDEX 01 05:01:05
TRACK 03 AUDIO
TITLE "Treat Her Like A Lady"
PERFORMER "Celine Dion"
ISRC CAC229700152
INDEX 00 09:11:72
INDEX 01 09:12:15
TRACK 04 AUDIO
TITLE "Why Oh Why"
PERFORMER "Celine Dion"
ISRC CAC229700118
INDEX 01 13:17:37
TRACK 05 AUDIO
TITLE "Love Is On The Way"
PERFORMER "Celine Dion"
ISRC CAC229700151
INDEX 00 18:07:60
INDEX 01 18:08:62
TRACK 06 AUDIO
TITLE "Tell Him (Duet with Barbra Streisand)"
PERFORMER "Celine Dion"
ISRC CAC229700104
INDEX 00 22:34:02
INDEX 01 22:35:30
TRACK 07 AUDIO
TITLE "Amar Haciendo El Amor"
PERFORMER "Celine Dion"
ISRC CAC229700125
INDEX 00 27:26:42
INDEX 01 27:27:15
TRACK 08 AUDIO
TITLE "When I Need You"
PERFORMER "Celine Dion"
ISRC CAC229700127
INDEX 00 31:37:55
INDEX 01 31:37:72
TRACK 09 AUDIO
TITLE "Miles To Go (Before I Sleep)"
PERFORMER "Celine Dion"
ISRC CAC229700115
INDEX 00 35:49:17
INDEX 01 35:50:45
TRACK 10 AUDIO
TITLE "Us"
PERFORMER "Celine Dion"
ISRC CAC229700117
INDEX 01 40:30:40
TRACK 11 AUDIO
TITLE "Just A Little Bit Of Love"
PERFORMER "Celine Dion"
ISRC CAC229700112
INDEX 00 46:16:00
INDEX 01 46:17:12
TRACK 12 AUDIO
TITLE "My Heart Will Go On"
PERFORMER "Celine Dion"
ISRC CAC229700120
INDEX 00 50:23:32
INDEX 01 50:23:67
TRACK 13 AUDIO
TITLE "Where Is The Love"
PERFORMER "Celine Dion"
ISRC CAC229700116
INDEX 00 55:03:67
INDEX 01 55:04:17
TRACK 14 AUDIO
TITLE "Be The Man"
PERFORMER "Celine Dion"
ISRC CAC229700122
INDEX 00 59:59:25
INDEX 01 60:00:10
TRACK 15 AUDIO
TITLE "I Hate You Then I Love You (Duet with Luciano Pavarotti)"
PERFORMER "Celine Dion"
ISRC CAC229700124
INDEX 00 64:39:10
INDEX 01 64:39:62
TRACK 16 AUDIO
TITLE "Let's Talk About Love"
PERFORMER "Celine Dion"
ISRC CAC229700126
INDEX 00 69:22:47
INDEX 01 69:23:20
十分感谢,听朋友推荐这张碟很经典
非常感谢提供正确的cue!
下的好慢啊 几天都没动了
这张碟很不错,不过貌似资源很少
是原盘的吗