《狼与香辛料原声集》(Spice and Wolf)[O.S.T-狼と旅の音楽][附BK][TTA]

《狼与香辛料原声集》(Spice and Wolf)[O.S.T-狼と旅の音楽][附BK][TTA]
  • 片  名  《狼与香辛料原声集》(Spice and Wolf)[O.S.T-狼と旅の音楽][附BK][TTA]
  • 简  介  发行时间: 2008年03月12日对白语言: 日语
  • 类  别  动漫
  • 小  类  动漫周边


  • 详细介绍中文名: 狼与香辛料原声集英文名: Spice and Wolf别名: 狼と香辛料版本: [O.S.T-狼と旅の音楽][附BK][TTA]发行时间: 2008年03月12日地区: 日本对白语言: 日语简介:
    【剧情简介】
    到处旅行靠贩卖一些小商品为生的商人劳伦斯,从因为收获祭而沸腾的帕斯洛耶村回来后却发现自己的运货马车中貌似有什么东西在里面,劳伦斯把麦束拨开一看,里面却睡着一只长有狼耳和狼尾巴的少女。这位少女自称是“掌控丰收的贤狼——赫萝”,靠麦子为生的她如果脖子上挂的帕斯洛耶麦子遗失了就会死。赫萝死赖着劳伦斯希望他能够带她回到遥远的北方故乡,于是,狼女与商人“完全没有剑与魔法的”旅行由此展开……
    【专辑介绍】
    TVアニメーション「狼と香辛料」O.S.T 狼と旅の音楽 / アニメサントラ (音楽: 吉野裕司、他)
    * 商品番号: VTCL-60021
    * メディア: アルバムCD
    * 組枚数: 1
    * 発売日: 2008/03/12
    * 価格: 3045円(税込)
    * 内容
    60万部を超える大ヒットライトノベル「狼と香辛料」のアニメを彩る珠玉の音楽 ブズーキ、マンドリン、バンドネオンなどの古楽器にこだわりぬいた、従来の劇伴とは一線を画す独特のサウンド。架空の時代設定ではありながら、中世の東ヨーロッパの雰囲気を漂わせる「狼と香辛料」の作品世界をドラマチックに彩る。 OPテーマ「旅の途中-TVサイズ-」(清浦夏実)、EDテーマ「リンゴ日和-TVサイズ-」(ROCKY CHACK)他、20曲収録予定。
    【Artist/Cast】
    吉野裕司 (演奏者) 清浦夏実 (アーティスト) 
    ROCKY CHACK (アーティスト) 
    【收录曲目】
    1. 商人と狼と、旅の荷馬車/ 吉野裕司
    2. 旅の途中/ 清浦夏実
    3. 遠い約束は・・・/ 吉野裕司
    4. しっぽとダンス/ 吉野裕司
    5. 夢のまにまに/ 吉野裕司
    6. はしる/ 吉野裕司
    7. 下弦の月/ 吉野裕司
    8. 月夜のたてがみ/ 吉野裕司
    9. ひとりぼっちの夢/ 吉野裕司
    10. 光る轍/ 吉野裕司
    11. 異国の調べ/ 吉野裕司
    12. ざわざわする/ 吉野裕司
    13. はじめての村/ 吉野裕司
    14. 長い夜、冷えた月/ 吉野裕司
    15. 食む/ 吉野裕司
    16. ゆれる麦/ 吉野裕司
    17. 未知なるもの/ 吉野裕司
    18. 夜明け前/ 吉野裕司
    19. きみのもとへ/ 吉野裕司
    20. ちいさなためいき/ 吉野裕司
    21. 犬歯とよっぱらい/ 吉野裕司
    22. 強い風が吹いても/ 吉野裕司
    23. 正しき天秤/ 吉野裕司
    24. 聡き人たち/ 吉野裕司
    25. 忘れないで/ 吉野裕司
    26. 暗い森/ 吉野裕司
    27. まつりのうた/ 吉野裕司
    28. 変化/ 吉野裕司
    29. まだ見ぬ街へ/ 吉野裕司
    30. リンゴ日和~The Wolf Whistling Song TVsize/ ROCKY CHACK
    31. 旅の途中 TVsize/ 清浦夏実
    【官方网站】
    http://www.spicy-wolf.com/
  • 《狼与香辛料原声集》(Spice and Wolf)[O.S.T-狼と旅の音楽][附BK][TTA]_large

精选评论

又是我,支持和赫萝有关资源发布,呵呵
终于等到萌狼的OST了,谢谢楼主发布~
期待MP3版本,硬盘吃紧中······
好物感谢拉
TTA?楼主给介绍一下~下了用TTplayer倒是能听~怎么分割啊?
用千千载入.tta.cue文件。就可以了。
很好........
千千是什麼阿??
可請大大解答一下><
www.qianqian.com
it is really good and convenient!!!
very thakful to xeyu^^~~
谢过XUYU大神.友好的话加下QQ393527090
谢谢吖~!
找了很久了
喜欢……
CUE 修改为这样就OK了


PERFORMER "吉野裕司"
TITLE "Spice and Wolf"
REM DATE 2008
REM DISCID BF11181F
REM COMMENT "ExactAudioCopy v0.99pb4"
FILE "VTCL60021.tta" WAVE
TRACK 01 AUDIO
TITLE " 商人と狼と、旅の荷馬車"
PERFORMER "吉野裕司"
INDEX 01 00:00:00
TRACK 02 AUDIO
TITLE "旅の途中"
PERFORMER "吉野裕司"
INDEX 00 02:45:00
INDEX 01 02:46:30
TRACK 03 AUDIO
TITLE "遠い約束"
PERFORMER "吉野裕司"
INDEX 00 07:37:60
INDEX 01 07:40:15
TRACK 04 AUDIO
TITLE "しっぽとダンス"
PERFORMER "吉野裕司"
INDEX 00 09:07:20
INDEX 01 09:08:50
TRACK 05 AUDIO
TITLE "夢のまにまに"
PERFORMER "吉野裕司"
INDEX 00 11:40:15
INDEX 01 11:41:45
TRACK 06 AUDIO
TITLE "はしる"
PERFORMER "吉野裕司"
INDEX 00 13:34:50
INDEX 01 13:36:05
TRACK 07 AUDIO
TITLE "下弦の月"
PERFORMER "吉野裕司"
INDEX 00 15:22:15
INDEX 01 15:23:45
TRACK 08 AUDIO
TITLE "月夜のたてがみ"
PERFORMER "吉野裕司"
INDEX 00 18:08:10
INDEX 01 18:08:55
TRACK 09 AUDIO
TITLE "ひとりぼっちの夢"
PERFORMER "吉野裕司"
INDEX 00 20:12:00
INDEX 01 20:13:30
TRACK 10 AUDIO
TITLE "光る轍"
PERFORMER "吉野裕司"
INDEX 00 22:26:20
INDEX 01 22:27:50
TRACK 11 AUDIO
TITLE "異国の調べ"
PERFORMER "吉野裕司"
INDEX 00 24:47:70
INDEX 01 24:49:25
TRACK 12 AUDIO
TITLE "ざわざわする"
PERFORMER "吉野裕司"
INDEX 00 28:22:50
INDEX 01 28:24:05
TRACK 13 AUDIO
TITLE "はじめての村"
PERFORMER "吉野裕司"
INDEX 00 30:40:05
INDEX 01 30:41:35
TRACK 14 AUDIO
TITLE "長い夜、冷えた月"
PERFORMER "吉野裕司"
INDEX 00 33:55:55
INDEX 01 33:57:10
TRACK 15 AUDIO
TITLE "食む"
PERFORMER "吉野裕司"
INDEX 00 35:55:10
INDEX 01 35:56:40
TRACK 16 AUDIO
TITLE "ゆれる麦"
PERFORMER "吉野裕司"
INDEX 00 38:05:45
INDEX 01 38:07:00
TRACK 17 AUDIO
TITLE "未知なるもの"
PERFORMER "吉野裕司"
INDEX 00 40:56:45
INDEX 01 40:58:00
TRACK 18 AUDIO
TITLE "夜明け前"
PERFORMER "吉野裕司"
INDEX 00 42:40:55
INDEX 01 42:42:10
TRACK 19 AUDIO
TITLE "きみのもとへ"
PERFORMER "吉野裕司"
INDEX 00 44:11:45
INDEX 01 44:13:00
TRACK 20 AUDIO
TITLE "ちいさなためいき"
PERFORMER "吉野裕司"
INDEX 00 46:44:40
INDEX 01 46:45:70
TRACK 21 AUDIO
TITLE "犬歯とよっぱらい"
PERFORMER "吉野裕司"
INDEX 00 48:58:20
INDEX 01 48:59:50
TRACK 22 AUDIO
TITLE "強い風が吹いても"
PERFORMER "吉野裕司"
INDEX 00 51:04:40
INDEX 01 51:05:70
TRACK 23 AUDIO
TITLE "正しき天秤"
PERFORMER "吉野裕司"
INDEX 00 53:28:30
INDEX 01 53:29:60
TRACK 24 AUDIO
TITLE "聡き人たち"
PERFORMER "吉野裕司"
INDEX 00 55:40:45
INDEX 01 55:42:00
TRACK 25 AUDIO
TITLE "忘れないで"
PERFORMER "吉野裕司"
INDEX 00 56:50:50
INDEX 01 56:52:05
TRACK 26 AUDIO
TITLE "暗い森"
PERFORMER "吉野裕司"
INDEX 00 59:42:35
INDEX 01 59:43:65
TRACK 27 AUDIO
TITLE "まつりのうた"
PERFORMER "吉野裕司"
INDEX 00 61:58:65
INDEX 01 61:59:20
TRACK 28 AUDIO
TITLE "変化"
PERFORMER "吉野裕司"
INDEX 00 64:49:15
INDEX 01 64:50:45
TRACK 29 AUDIO
TITLE "まだ見ぬ街へ"
PERFORMER "吉野裕司"
INDEX 00 67:07:00
INDEX 01 67:08:30
TRACK 30 AUDIO
TITLE "リンゴ日和~The Wolf Whistling Song(TV size)"
PERFORMER "Rocky Chack"
INDEX 00 69:45:30
INDEX 01 69:46:60
TRACK 31 AUDIO
TITLE "旅の途中 (TV size)"
PERFORMER "清浦夏実"
INDEX 00 71:16:65
INDEX 01 71:23:20