德永英明(HIDEAKI TOKUNAGA) -《INTRO II》专辑[TTA]

德永英明(HIDEAKI TOKUNAGA) -《INTRO II》专辑[TTA]
  • 片  名  德永英明(HIDEAKI TOKUNAGA) -《INTRO II》专辑[TTA]
  • 简  介  发行时间: 1992年12月04日地区: 日本语言: 日语
  • 类  别  音乐
  • 小  类  日韩音乐


  • 详细介绍简介: 专辑介绍:
    继INTRO发行后第二张专辑,这是德永英明的第二张精选集,取名叫INTRO,我想是要让大家重新来认识德永英明这位创作型的才子歌手吧。
    只从听了VOCALIST 系列专辑后就深深爱上他的歌曲,故找了下他的作品,这个是92年的第二专辑,里面的歌曲首首精湛让人听了不想停止的感觉,现在上下班我都听,感觉有点儿疯狂了.而且在他的歌曲中我找到了不少80年代香港歌手的歌曲,搜索了才知道当时不少港台歌手都有翻唱他的歌曲等
    德永英明耐人寻味的旋律是他一直受到港台歌手翻唱的主因,从张学友、谭咏麟、郑伊健、吕方、张信哲、姜育恒等人都曾翻唱,如出道曲《Rainy Blue》因为张学友的翻唱在香港的知名度高于日本.
    歌手介绍:
    有着“日本情歌王子”之称的德永英明,1986年出道时正是乐团全盛时期,当时所有电视、电台、杂志的宣传媒体都将焦点放在乐团,对于刚出道的德永英明来说有点生不逢时的感叹,1987年以《永恒的光辉..》拿下当年年度畅销曲TOP6,因为他独特的嗓音是乐团无法唱出的,也因为这首歌而受到大家注意。不过德永英明在当时接受访问时却说,他很不喜欢自己的歌声,因为这样的嗓音让他唱歌受限了。
    异于一般男生的假高音也让他在出道时倍受困扰,常被误以为是女生甚至怀疑他是人妖等流言,然而德永英明却在2005年发行《男声》专辑,成为日本流行音乐史上翻唱女歌手名曲的男歌手第一人,从山口百惠、中岛美雪、竹内玛莉亚、一青窈等经典作品,在他纤细凄怆的歌喉诠释下,抓住日本歌迷的心,拿下公信榜TOP4目前销售直逼50万张,让他的歌唱生涯再登高峰。
    在2001年因急性血管炎,已危及生命,让他终止所有音乐活动,2004 年复出歌坛发行《MY LIFE》专辑中,写了一首《我仅是我的救世主》,自己才是自己救世主,深切写出大病之后的人生领悟,在出道时对于大家冠以他“情歌王子”、“情歌偶像” 这些匿称让他极厌恶,年轻时脾气不好个性直接的他,让许多工作人员都不喜欢跟他一起工作,而现在战胜病魔,德永英明对人生的体验大大改观,用生命唱出隽永的美丽歌声,感动世上所有寂寞的灵魂。
  • 德永英明(HIDEAKI TOKUNAGA) -《INTRO II》专辑[TTA]_large

精选评论

我也是
VOCALIST 系列专辑后就喜欢上他的歌曲
喜欢壊れかけのRadio,レイニー ブルー很经典,感谢分享!!!
よいものじゃ!!!
だいすき!!!
どうも~~~
JS,强档~~~~~
我是听到他翻唱的一首 坠入爱河 而喜欢他的歌曲的
为什么CUE文件打开是乱码勒??
很好的东西
德叔的碟子真不好买
CUE文件不能用
请楼主修改
我修改了一下CUE文件,方便每一首歌曲的选择
用记事本打开CUE文件,复制以下内容替换掉原来的,然后保存

REM GENRE JPop
REM DATE 1992
REM DISCID E010BA0E
REM COMMENT "ExactAudioCopy v0.95b4"
CATALOG 4988015045321
PERFORMER "德永英明"
TITLE "INTRO.II"
FILE "APCA-73.tta" TTA
TRACK 01 AUDIO
TITLE "最后の言い訳 "
PERFORMER "德永英明"
ISRC JPAP09213401
INDEX 00 00:00:00
INDEX 01 00:00:37
TRACK 02 AUDIO
TITLE "Wednesday Moon"
PERFORMER "德永英明"
ISRC JPAP09213402
INDEX 00 06:18:60
INDEX 01 06:19:19
TRACK 03 AUDIO
TITLE "MYKNOS"
PERFORMER "德永英明"
ISRC JPAP09213403
INDEX 01 11:34:19
TRACK 04 AUDIO
TITLE "I LOVE YOU"
PERFORMER "德永英明"
ISRC JPAP09209101
INDEX 00 17:12:25
INDEX 01 17:13:24
TRACK 05 AUDIO
TITLE "梦を信じて(ReMix)"
PERFORMER "德永英明"
ISRC JPAP09213405
INDEX 00 22:53:53
INDEX 01 22:55:24
TRACK 06 AUDIO
TITLE "壊れかけのRadio(ReMix)"
PERFORMER "德永英明"
ISRC JPAP09213406
INDEX 01 27:47:52
TRACK 07 AUDIO
TITLE "Dear…(NewRec&ReMix)"
PERFORMER "德永英明"
ISRC JPAP09213407
INDEX 00 33:02:45
INDEX 01 33:03:44
TRACK 08 AUDIO
TITLE "LOVE IS ALL"
PERFORMER "德永英明"
ISRC JPAP09213408
INDEX 00 36:36:20
INDEX 01 36:37:47
TRACK 09 AUDIO
TITLE "梦の続き"
PERFORMER "德永英明"
ISRC JPAP09209102
INDEX 00 41:42:63
INDEX 01 41:44:44
TRACK 10 AUDIO
TITLE "眠れない夜(ReMix)"
PERFORMER "德永英明"
ISRC JPAP09213410
INDEX 00 45:37:70
INDEX 01 45:39:32
TRACK 11 AUDIO
TITLE "Revolution"
PERFORMER "德永英明"
ISRC JPAP09213411
INDEX 01 49:56:12
TRACK 12 AUDIO
TITLE "恋の行方"
PERFORMER "德永英明"
ISRC JPAP09213412
INDEX 01 56:19:72
TRACK 13 AUDIO
TITLE "君の青(ReMix)"
PERFORMER "德永英明"
ISRC JPAP09213413
INDEX 00 61:40:63
INDEX 01 61:42:32
TRACK 14 AUDIO
TITLE " レイニーブルー(NewRec&ReMix)"
PERFORMER "德永英明"
ISRC JPAP09213414
INDEX 00 67:03:33
INDEX 01 67:04:42
谢谢楼主辛苦了,虽然不懂日文,但很喜欢听德永英明的歌,同时也感谢8楼的朋友修改了CUE文件,但好象CUE文件还是有问题,不能把每一首歌分开,能不能麻烦二位再给修改一下,谢谢了!
听过他得歌就会爱上他的声音
7楼的文件第8行
FILE "APCA-73.tta" TTA
修改为:
FILE "APCA-73.tta" WAVE
这样就可以了。


还是不行,麻烦再看看怎么修改的
谢谢楼主的分享,望早推新作
感谢楼主大公无私的分享 谢谢!