中岛美雪(Nakajima Miyuki) -《短篇集》专辑[APE]

中岛美雪(Nakajima Miyuki) -《短篇集》专辑[APE]
  • 片  名  中岛美雪(Nakajima Miyuki) -《短篇集》专辑[APE]
  • 简  介  发行时间: 2000年地区: 日本语言: 日语
  • 类  别  音乐
  • 小  类  日韩音乐


  • 详细介绍专辑中文名: 短篇集歌手: 中岛美雪(Nakajima Miyuki)资源格式: APE版本: 专辑发行时间: 2000年地区: 日本语言: 日语简介:
    专辑介绍:
      港台歌手的最爱,举列:邓丽君的《漫步人生路》、叶蒨文的《时代》、江淑娜的《两个人的月亮》、林佳仪的《一个人的我依然会微笑》、王菲的《容易受伤的女人》,以及年轻一辈的侯湘婷《离开爱的日子》、任贤齐的《伤心像太平洋》。这些作品,全部翻自日本乐坛的“传奇歌姬”——中岛美雪。
      本人是在看一部NHK的记录片的时候,无意中接触到中岛美雪的作品。
    http://lib.VeryCD.com/2005/08/08/0000059976.html
    http://lib.VeryCD.com/2006/04/05/0000097387.html
    如果在平时,可能一听而过;但是,如果具体结合到片子的情节,就立刻感觉到了作品的对心灵的震撼。可能是映象帮助我们对中岛作品有了更好的理解吧。
      出版过许多诗歌集、散文集、小说的中岛美雪,在文学界得到不少的赞赏,自有其丰富的文学素养,可从她的音乐创作中细腻入微的歌词感受得到,发现那如诗般的意境。中岛美雪像是一位揭穿感情真貌的艺术家,日本名作家松本侑子曾在她的书中提到:“中岛美雪歌中的人物让人感觉软弱无助,但是绝非自艾自怜,反而是坚强冷静,不易受伤。”
      《短篇集》耗时二年半,也是中岛美雪总结二十世纪的最佳代表作。《短篇集》可说是“一本用耳朵倾听的短篇小说”,欣赏它就好象阅读一本短篇小说,故事情节让人不自觉在脑海中重现生动影像,每一首歌的背后都有一个故事,十一首歌也就是十一篇短篇小说,有彩色画面,也有黑白的。
      静静品味《短篇集》的十一首歌,让人再一次惊叹中岛美雪的才华洋溢,她以独树一帜的唱腔诠释她的每一首独特创作,让人深刻感受中岛式音乐的生命力。其中的《归乡》一曲,淡淡的曲风竟也引起一股淡淡的思乡情愁。而另外也收录了上一张单曲的《地上之星》及《前灯·尾灯》。《Tell Me,Sister》则是一首非常轻快活泼的曲子,可从中发现中岛美雪的原味。《后悔》是中岛美雪一向擅长的失恋抒情曲风。长度只有二分三十秒的《结婚》则被称为这张专辑中的极短篇,以简单的叙事风格,歌词内容却十分的有趣。
      集结了十一首好歌的这张《短篇集》,让人再一次深刻感觉中岛美雪独特的《斗性》与《魔性》。希望每个人都能静静的好好品味中岛美雪的作品,相信她的曲、她的词、她的音乐会让你得到更大的感动,甚至在心中回响久久无法忘记。
    十二分感谢IMG的【hfjtun原创】!献给【夜不黑】及其他喜欢【中岛みゆき】的朋友!
    常驻DS1、2,Xtreme发布!
  • 中岛美雪(Nakajima Miyuki) -《短篇集》专辑[APE]_large

精选评论

美张必下 狂听之
好歌啊~谢谢楼主的分享
个人认为这张是最好听的 谢谢LZ无私分享 就是不知现在有没种
CUE已经无源 不知可否贴出CUE文件内容
PERFORMER "中島みゆき"
TITLE "短篇集"
FILE "中岛美雪.-.[美雪集-原曲流行极品].专辑.(ape).ape" WAVE
TRACK 01 AUDIO
TITLE "地上の星"
INDEX 01 00:00:00
TRACK 02 AUDIO
TITLE "帰省"
FLAGS DCP
INDEX 00 05:03:55
INDEX 01 05:11:45
TRACK 03 AUDIO
TITLE "夢の通り道を僕は歩いている"
FLAGS DCP
INDEX 00 10:21:42
INDEX 01 10:29:32
TRACK 04 AUDIO
TITLE "後悔"
FLAGS DCP
INDEX 00 14:57:07
INDEX 01 15:04:72
TRACK 05 AUDIO
TITLE "MERRY-GO-ROUND"
FLAGS DCP
INDEX 00 21:12:70
INDEX 01 21:20:60
TRACK 06 AUDIO
TITLE "天使の階段"
FLAGS DCP
INDEX 00 27:07:20
INDEX 01 27:15:10
TRACK 07 AUDIO
TITLE "過ぎゆく夏"
FLAGS DCP
INDEX 00 31:32:00
INDEX 01 31:39:65
TRACK 08 AUDIO
TITLE "結婚"
FLAGS DCP
INDEX 00 35:15:02
INDEX 01 35:22:67
TRACK 09 AUDIO
TITLE "粉雪は忘れ薬"
FLAGS DCP
INDEX 00 37:48:00
INDEX 01 37:55:65
TRACK 10 AUDIO
TITLE "Tell Me,Sister"
FLAGS DCP
INDEX 00 43:20:20
INDEX 01 43:28:10
TRACK 11 AUDIO
TITLE "ヘッドライト.テールライト"
REM DATE 2000
FLAGS DCP
INDEX 00 48:47:05
INDEX 01 48:54:70
更正如下:
PERFORMER "中島みゆき"
TITLE "短篇集"
FILE "中岛美雪(Nakajima.Miyuki).-.[短篇集].专辑.(ape).ape" WAVE
TRACK 01 AUDIO
TITLE "地上の星"
INDEX 01 00:00:00
TRACK 02 AUDIO
TITLE "帰省"
INDEX 00 05:03:55
INDEX 01 05:11:45
TRACK 03 AUDIO
TITLE "夢の通り道を僕は歩いている"
INDEX 00 10:21:42
INDEX 01 10:29:32
TRACK 04 AUDIO
TITLE "後悔"
INDEX 00 14:57:07
INDEX 01 15:04:72
TRACK 05 AUDIO
TITLE "MERRY-GO-ROUND"
INDEX 00 21:12:70
INDEX 01 21:20:60
TRACK 06 AUDIO
TITLE "天使の階段"
INDEX 00 27:07:20
INDEX 01 27:15:10
TRACK 07 AUDIO
TITLE "過ぎゆく夏"
INDEX 00 31:32:00
INDEX 01 31:39:65
TRACK 08 AUDIO
TITLE "結婚"
INDEX 00 35:15:02
INDEX 01 35:22:67
TRACK 09 AUDIO
TITLE "粉雪は忘れ薬"
INDEX 00 37:48:00
INDEX 01 37:55:65
TRACK 10 AUDIO
TITLE "Tell Me,Sister"
INDEX 00 44:20:20
INDEX 01 44:28:10
TRACK 11 AUDIO
TITLE "ヘッドライト.テールライト"
INDEX 00 49:47:05
INDEX 01 49:54:70
多么美丽多么纯情的美雪阿姨你最棒
谢谢
好有才~