Bernstein -《舒曼交响曲全集》(Schumann Complete Symphonies)DG[APE]

Bernstein -《舒曼交响曲全集》(Schumann Complete Symphonies)DG[APE]
  • 片  名  Bernstein -《舒曼交响曲全集》(Schumann Complete Symphonies)DG[APE]
  • 简  介  发行时间: 1999年
  • 类  别  音乐
  • 小  类  古典音乐


  • 详细介绍专辑英文名: Schumann Complete Symphonies专辑中文名: 舒曼交响曲全集艺术家: Bernstein资源格式: APE版本: DG发行时间: 1999年地区: 美国语言: 德语简介:
    作曲家:Schumann
    指挥:Bernstein
    乐团:WPO
    录音时间:1984-1985年
    CD编号:DGG 453 049-2
    专辑介绍:
    ROBERT SHUMANN
    1810.6.29 ~ 1856.7.29
    浪漫樂派的健將,革新者、批評家、鼓吹新事物的运動家
    他是堅決反對古典樂派的先驅,他早期的作品幾乎摒棄了所有的舊形式,等到後期才在妻子克拉拉的影響下,重拾傳統的交響曲與四重奏形式。
    舒曼所創作的「間奏曲」、「阿拉貝斯克」、「大衛同盟」、「兒時情景」等樂曲其實都是經過串連的幻想曲,因為以前的形式對他而言是毫無意義的,他認為音樂的氣氛、色調暗示與聯想比寫作工整的奏鳴曲、輪旋曲或賦格要重要多了。因此舒曼主張:內容與思想造就了形式,而非形式造就內容與思想。
    舒曼的父親是書商,在家庭環境的薰陶下,他從小就對文學有濃厚的興趣,尤其浪漫時期的作家尚 保羅對他有極為重要的影響,後來這種文學性就反映在他的音樂中。
    舒曼認為音樂的目的在於反映心靈的狀態,從這個觀念發展而得的結果就是:短短數語就能抵得過長篇大論,甚至表達得更多。
    舒曼的音樂總是帶著詭譎善變的氣質、萬花筒般的結構與強烈的主觀意識,再加上他對舊有形式的摒棄,使得保守的音樂人士對舒曼展開強烈的攻訐,連帶地導致舒曼的作品極少被演出,這種情況在音樂史上是相當罕見的。
    舒曼的思想非常敏感,任何的音樂都能在他的心靈留下震動的痕跡,過度的敏感使舒曼的腦中充滿著光怪陸離的幻想,可是他的身心卻無法承受這樣的折磨,終於導致他心力交瘁。
    舒曼在1834創立了「新音樂雜誌」,他的目的是要提供一個公開的園地,為音樂界褒善貶惡,並創立了「大衛同盟」,以此同盟的成員作為「新音樂雜誌」的評論員。經過舒曼的評論,蕭邦、蓋德、布拉姆斯等人都成名了,而 舒伯特、孟德爾頌也受到他的崇仰。
    舒曼的文章讓世人認識了貝多芬後期的樂曲的價值,重新喚醒對舒伯特的興趣,並且在十九世紀的巴哈復興風潮中扮演著重要的角色。
    身兼樂評家的舒曼很能理解其他作曲家的觀念,並對大眾解釋說明 ,但是當時能夠理解舒曼作品的人卻不多,因為他所寫的都是自傳性的音樂,任何事物都 會影響他,舒曼藉著獨立思考將外在的影響表達在音樂之中,這種極端個人化的音樂的確 是難以理解,不過這也正是浪漫主義的本色。
    舒曼本人往往對自己的音樂也不甚了了,有些作品甚至是在接近恍惚的狀況下寫成的 ,舒曼首先編曲,等瀏覽完畢後再賦予標題,他的所有作品幾乎都是寫成後才命名。而所 謂的名稱也只是讓聽眾對作曲家的情感有線索可循,他並不希望聽眾將曲名當作樂曲故事 的指南。
    舒曼最早是以創作鋼琴曲起家,他的鋼琴曲大多是由小品集結而成的,除了少數的作 品之外,舒曼的鋼琴曲並沒有一個統一的樂念。他的鋼琴曲需要高難度的技巧,但是卻不 像李斯特 的鋼琴曲那樣具備炫技的成分,相反地,舒曼的鋼琴音樂絕無賣弄之嫌,他極力反對為賣弄而賣弄。
    (转自e-classical,原文作者不详。)
    虽然舒曼的特长是在小规模的钢琴、声乐作品上,但是他一生所作的四部交响曲却始终受到广大听众们的喜爱和欢迎。其中比较著名的是两部标题作品——《第一交响曲“春天”》以及《第三交响曲“莱茵”》。
  • Bernstein -《舒曼交响曲全集》(Schumann Complete Symphonies)DG[APE]_large

精选评论

第一张和第二张文件夹, 颠倒了!
并且第二张好像不是cd压的啊!哎 只好换版本了!
PERFORMER "Leonard Bernstein"
TITLE "Schumann Complete Symphonies"
FILE "CDImage.ape" WAVE
TRACK 01 AUDIO
TITLE "1. Symphony No.3 in E flat, Op.97 - "Rhenish" - 1. Lebhaft"
PERFORMER "Leonard Bernstein"
INDEX 00 00:00:00
INDEX 01 00:00:32
TRACK 02 AUDIO
TITLE "2. Symphony No.3 in E flat, Op.97 - "Rhenish" - 2. Scherzo"
PERFORMER "Leonard Bernstein"
INDEX 01 09:45:32
TRACK 03 AUDIO
TITLE "3. Symphony No.3 in E flat, Op.97 - "Rhenish" - 3. Nicht schnell"
PERFORMER "Leonard Bernstein"
INDEX 01 16:13:32
TRACK 04 AUDIO
TITLE "4. Symphony No.3 in E flat, Op.97 - "Rhenish" - 4. Feierlich"
PERFORMER "Leonard Bernstein"
INDEX 01 22:21:32
TRACK 05 AUDIO
TITLE "5. Symphony No.3 in E flat, Op.97 - "Rhenish" - 5. Lebhaft-Schneller"
PERFORMER "Leonard Bernstein"
INDEX 01 29:18:37
TRACK 06 AUDIO
TITLE "6. Symphony No.4 in D minor, Op.120 - 1. Ziemlich langsam - Lebhaft"
PERFORMER "Leonard Bernstein"
INDEX 00 34:42:32
INDEX 01 34:51:32
TRACK 07 AUDIO
TITLE "7. Symphony No.4 in D minor, Op.120 - 2. Romanze (Ziemlich langsam)"
PERFORMER "Leonard Bernstein"
INDEX 01 46:42:37
TRACK 08 AUDIO
TITLE "8. Symphony No.4 in D minor, Op.120 - 3. Scherzo (lebhaft) & Trio"
PERFORMER "Leonard Bernstein"
INDEX 01 51:55:22
TRACK 09 AUDIO
TITLE "9. Symphony No.4 in D minor, Op.120 - 4. Langsam-Lebhaft-Schneler-Presto"
PERFORMER "Leonard Bernstein"
INDEX 01 57:49:57
PERFORMER "Leonard Bernstein"
TITLE "Schumann Complete Symphonies"
FILE "CDImage.ape" WAVE
TRACK 01 AUDIO
TITLE "1. Symphony No.1 in B flat, Op.38 - "Spring" - 1. Andante un poco maestoso"
PERFORMER "Leonard Bernstein"
INDEX 00 00:00:00
INDEX 01 00:00:32
TRACK 02 AUDIO
TITLE "2. Symphony No.1 in B flat, Op.38 - "Spring" - 2. Larghetto"
PERFORMER "Leonard Bernstein"
INDEX 01 11:33:32
TRACK 03 AUDIO
TITLE "3. Symphony No.1 in B flat, Op.38 - "Spring" - 3. Scherzo: Molto vivace"
PERFORMER "Leonard Bernstein"
INDEX 01 19:23:22
TRACK 04 AUDIO
TITLE "4. Symphony No.1 in B flat, Op.38 - "Spring" - 4. Allegro animato e grazioso"
PERFORMER "Leonard Bernstein"
INDEX 01 25:07:65
TRACK 05 AUDIO
TITLE "5. Symphony No.2 in C, Op.61 - 1. Sostenuto assai - Allegro, ma non troppo"
PERFORMER "Leonard Bernstein"
INDEX 00 33:23:32
INDEX 01 33:30:32
TRACK 06 AUDIO
TITLE "6. Symphony No.2 in C, Op.61 - 2. Scherzo: Allegro vivace"
PERFORMER "Leonard Bernstein"
INDEX 01 46:29:32
TRACK 07 AUDIO
TITLE "7. Symphony No.2 in C, Op.61 - 3. Adagio espressivo"
PERFORMER "Leonard Bernstein"
INDEX 01 53:36:32
TRACK 08 AUDIO
TITLE "8. Symphony No.2 in C, Op.61 - 4. Allegro molto vivace"
PERFORMER "Leonard Bernstein"
INDEX 01 67:25:32