戴玉强 -《中国第一男高音戴玉强独唱音乐会》(THE CHINESE TENOR DAI YUQIANG)HDCD[FLAC]

戴玉强 -《中国第一男高音戴玉强独唱音乐会》(THE CHINESE TENOR DAI YUQIANG)HDCD[FLAC]
  • 片  名  戴玉强 -《中国第一男高音戴玉强独唱音乐会》(THE CHINESE TENOR DAI YUQIANG)HDCD[FLAC]
  • 简  介  Douban1411578:8.4(110 votes)发行时间: 2005年
  • 类  别  音乐
  • 小  类  其它音乐


  • 详细介绍简介: 专辑介绍:
    戴玉强,男高音歌唱家,解放军总政歌剧团国家一级演员,毕业于中央戏剧学院表演系歌剧班和解放军艺术学院音乐系。
    戴玉强有优异的音乐天赋,他演唱的曲目广泛,风格多样,古典的、现代的、具有鲜明民族风格的作品几乎无所不包!他演唱的《你是这样的人》、《我像雪花天上来》、《喀什葛尔女郎》、《又见西柏坡》等歌曲,深受广大听众的喜爱和欢迎。世界著名经纪人——“三大男高音”经纪人提伯·鲁达斯先生在听了他的演唱后给予了较高的评价,世界著名男高音帕瓦洛蒂听了他的演唱后,欣喜地将其收为首位亚洲弟子。
    2003年10月,戴玉强在美国波特兰歌剧院主演了歌剧《图兰多》。2004年7月10日,与世界著名歌唱家玛利亚·古丽基娜(Maria Guleghina)和萨姆尔·拉梅依(Samuel Ramey)合作在英国科文特花园皇家歌剧院成功主演了普契尼的歌剧《托斯卡》,受到当地媒体的广泛好评,发行广泛的《地铁报》评价戴玉强的演出是“全场唯一的一颗闪亮的明星”,皇家歌剧院邀请他在2004-2005年演出季登台演出普契尼的歌剧《图兰多》和《波西米亚人》。
    2004年11月在美国太平洋歌剧院再次主演歌剧《图兰多》,2004年12月应老师帕瓦罗蒂的邀请赴意大利主演歌剧《艺术家的生涯》这部歌剧也是帕瓦罗蒂担任导演的第一部歌剧,同时这部歌剧于2005年2月在英国皇家花园科文特歌剧院由戴玉强主演,2006年4月他在美国洛杉矶主演《阿依达》。2004年7月,英国EMI唱片公司录制了他的第一张世界著名歌剧咏叹调的个人专辑唱片全球发行。他是目前活跃在世界歌剧舞台上杰出的亚裔歌唱家之一。
    曾获奖项:
    政府最高大奖“文华表演奖”
    中宣部“五个一工程”奖
    全军文艺汇演一等奖
    国家戏剧最高奖“戏剧梅花奖”
    第四届金唱片奖
    第一届日本·静冈国际歌剧比赛第一名
    第十二届比利时维尔维埃国际声乐大赛第三名
    2004年荣获国家文化部文华大奖。
    2004年荣获第七届中国艺术节“最喜爱的明星”称号。
    让我们一起为他加油喝彩,早日成为世界四大男高音之一!!

    资源有效性截图:

  • 戴玉强 -《中国第一男高音戴玉强独唱音乐会》(THE CHINESE TENOR DAI YUQIANG)HDCD[FLAC]_large

精选评论

本人所发资源全部原版抓取,这里就不要再对是否为CD资源等等讨论不休,图片使用尼康单反高感光拍摄,由于手头没有脚架,18-70镜头没有防抖,实在是端不住,还请大家理解。字都是一个一个敲上的,图片一张一张制作,才知不易!正所谓前人栽树后人乘凉,谁知盘中餐粒粒皆辛苦啊......

声明:本人发布的一切音乐资源,不做任何商业用途,仅供试听交流之用,版权仍属原唱片公司,请在试听后的23小时内自行删除上述下载内容,如喜欢,请购买正版唱片以支持您喜爱的艺术家。

在VC发帖不多,请版主、大家多批评,供源时间为每晚18时至24时,以后有条件会全天不定时供源,带宽2M,速度较慢,请大家帮忙分流,谢谢。

VCD镜像地址:点击进入

该张HDCD,增效还是比较明显的,大家可以通过第13和14首做一比较。但是,由于现场录音及国内唱片公司的实录设备等等原因,回放质量仍有一些瑕疵,比如在高音区,都不约而同的出现爆音、破音现象,这并不是盘片的自身质量问题,特此说明。
Exact Audio Copy V0.99 prebeta 4 from 23. January 2008

EAC 抓取日志文件从1. 三月 2009, 14:37

未知艺术家 / 未知标题

使用驱动器 :PIONEER DVD-RW DVR-109 Adapter: 2 ID: 0

读取模式 : 保护
使用精确流 : 是
废除音频缓冲 : 是
使用 C2 指针 : 否

组合读/写偏移校正 : 0
读取 Lead-In 和 Lead-Out : 否
用静音填充抓取中丢失偏移的采样 : 是
去除首尾静音块 : 否
在 CRC 计算中使用了空样本 : 否
已用接口 : Win NT 及 2000 本地 Win32 接口

所用输出格式 : 用户定义的编码器
已选比特率 : 768 kBit/s
质量 : 高
添加 ID3 标签 : 否
命令行压缩器 : D:音频编辑软件Exact Audio CopyFLACFLAC.EXE
附加命令行参数 : -6 -V -T "ARTIST=%a" -T "TITLE=%t" -T "ALBUM=%g" -T "DATE=%y" -T "TRACKNUMBER=%n" -T "GENRE=%m" -T "COMMENT=%e" %s -o %d


被抓轨 CD 的 TOC

音轨 | 开始 | 长度 | 起始扇区 | 结尾扇区
--------------------------------------------------
1 | 0:00.00 | 2:20.01 | 0 | 10500
2 | 2:20.01 | 3:20.14 | 10501 | 25514
3 | 5:40.15 | 4:28.34 | 25515 | 45648
4 | 10:08.49 | 3:43.71 | 45649 | 62444
5 | 13:52.45 | 3:44.34 | 62445 | 79278
6 | 17:37.04 | 2:54.08 | 79279 | 92336
7 | 20:31.12 | 3:20.04 | 92337 | 107340
8 | 23:51.16 | 3:41.65 | 107341 | 123980
9 | 27:33.06 | 4:42.53 | 123981 | 145183
10 | 32:15.59 | 4:32.28 | 145184 | 165611
11 | 36:48.12 | 4:55.19 | 165612 | 187755
12 | 41:43.31 | 3:07.72 | 187756 | 201852
13 | 44:51.28 | 3:23.01 | 201853 | 217078
14 | 48:14.29 | 3:18.00 | 217079 | 231928


范围状态及错误

已选择范围

文件名 E:EAC无损抓轨保存戴玉强.-.[中国第一男高音戴玉强独唱音乐会].双碟精装专辑.wav

峰值电平 100.0 %
范围质量 99.9 %
复制 CRC 97A9AAF6
复制成功

没有错误发生

状态报告结尾
感谢发布,帮你做了修改:
1.文件名:主要写专辑,其他用词可以在版本中表现;一个是中国第一男高音,另外一个是世界第一男高音?一并修改成中国第一男高音!
2.专辑封面下空一行需要填写“专辑介绍:”,除了专辑封面的图片一般都需要放在介绍后!
3.一般情况下图片不建议用代LOG的图片,可以引用下网络图片!
4.视频资料建议发布到演唱会区!这里只能发布音频资料的资源!


改好以后PM我或明月版主精华!
好东西,收了
楼主辛苦了
的确棒,感谢发布!!!
才知不易!正所谓前人栽树后人乘凉,谁知盘中餐粒粒皆辛苦啊......
55555..
每次有这样的好音乐,都是想拜谢在驴儿背后的楼主,这次也不例外...
没有怎么听过他的歌,不过应该很好听。谢谢。
最喜欢听:我像雪花天上来。 赞!!!
LZ发了碟,就在也不给源了吗? 不知道有几个下完的。
没有源啊,无法下载,后面的人别下了,骗人的!!!
来啦来啦,由于工作太忙,还请各位见谅啊
今天好容易下完了,急忙听听,但没想到小戴竟然在唱“今夜无人入睡”时哑了嗓子,意外?但这样的唱片怎么就出版出售呢?真是给第一男高音丢了颜面呀。谢谢楼主的辛苦和好意,还是撤源吧。撤了总比。。。。好。
真的撤了吗?无所谓啊!本来就没有当他是第一。